<?xml version="1.0" standalone="no"?>
<!DOCTYPE svg PUBLIC "-//W3C//DTD SVG 1.1//EN" "http://www.w3.org/Graphics/SVG/1.1/DTD/svg11.dtd">
<svg xmlns="http://www.w3.org/2000/svg">
<metadata>Copyright (C) 2021 by original authors @ fontello.com</metadata>
<defs>
<font id="bogsfootwear-icons" horiz-adv-x="1000" >
<font-face font-family="bogsfootwear-icons" font-weight="400" font-stretch="normal" units-per-em="1000" ascent="850" descent="-150" />
<missing-glyph horiz-adv-x="1000" />
<glyph glyph-name="tech-steeltoe" unicode="&#xe800;" d="M14 501c-4 0-6-2-4-6 0 0 59-136 212-155 127-16 215-47 212-74-1-12-1-28-1-28 0-4-3-6-7-6h-13c-3 0-6-3-6-7v-61c0-3 3-6 6-6h465c4 0 7 3 7 6v70c0 4-2 7-5 7-2 0-4 2-4 6v34c0 3 2 6 6 6h4c3 0 6 3 6 6v24c0 3 3 6 6 6h84c3 0 6 3 6 6v166c0 3-3 6-6 6h-100c-4 0-6 3-6 6v25c0 4-3 7-6 7h-494c-4 0-7-3-7-7v-25c0-3-2-6-6-6h-349z" horiz-adv-x="1000" />

<glyph glyph-name="divider" unicode="&#xe801;" d="M481 783v-866h-1v866h1z" horiz-adv-x="1000" />

<glyph glyph-name="box" unicode="&#xe802;" d="M892 521l-61 25 41 23c11 6 16 18 15 29-2 12-11 21-22 24l-247 59c-6 1-12 0-18-2l-79-35-61 40c-7 4-15 6-23 4l-302-75c-10-3-18-11-21-22-2-11 2-22 10-29l50-39-74-61c-7-6-11-15-10-25 1-9 7-18 15-22l86-44v-183c0-10 5-19 14-24l251-156c4-2 10-4 15-4 5 0 10 2 15 4l296 183c8 5 14 15 14 25l-1 193 101 61c10 6 15 16 14 27-1 11-8 20-18 24z m-721-75l66 54 194-80-83-66-177 92z m347 136l177-45-225-92-177 73 225 64z m231-65c2-1 68-28 68-28l-212-128-91 61 235 95z m-135 105l167-39c0 0-32-19-34-20l-170 43 37 16z m-175 7l32-21-231-65c-1 1-34 28-34 28l233 58z m-191-267l93-48c3-1 6-2 9-2 4 0 8 2 12 4l89 71v-308l-203 125v158z m241-284v315l104-71c4-2 7-3 11-3 4 0 7 1 10 3l124 74 0-164-249-154z" horiz-adv-x="1000" />

<glyph glyph-name="tech-slipresistant" unicode="&#xe803;" d="M992 414l-17 30-140-80-77 46 138 79-17 30-155-89-78 47 154 87-17 30-171-97-77 46 170 97-17 30-187-107-185 110-18-29 168-101-78-44-169 100-18-29 153-91-79-44-153 91-18-30 137-81-78-45-138 82-18-29 121-72-122-70 17-30 139 79 78-46-138-79 17-30 155 89 77-46-154-88 17-30 171 98 78-46-170-97 17-30 187 106 185-110 17 30-168 100 78 45 170-101 17 29-152 91 78 45 154-91 17 29-136 82 78 44 138-82 17 30-121 72 123 70z m-303-3l-78-45-77 46 78 45 77-46z m-112-65l-79-44-77 46 78 45 78-47z m-77 177l78-46-78-45-78 47 78 44z m-112-64l77-46-78-45-78 46 79 45z m-191-109l78 45 77-46-78-45-77 46z m111-66l79 44 77-46-78-44-78 46z m189-113l-77 46 78 45 77-46-78-45z m113 64l-78 47 79 44 77-46-78-45z m113 65l-78 46 78 45 78-47-78-44z" horiz-adv-x="1000" />

<glyph glyph-name="tech-electrical" unicode="&#xe804;" d="M774 430c5 5 2 10-5 10h-218c-8 0-12 6-9 13l128 390c2 7 1 8-4 2l-424-572c-4-5-2-10 6-10h218c7 0 11-6 9-13l-129-390c-2-7 0-8 4-2l424 572z" horiz-adv-x="1000" />

<glyph glyph-name="tech-neotech" unicode="&#xe805;" d="M399 813c34 13 69 25 107 35-54-34-87-89-119-141 16 6 33 11 50 17-50-46-99-96-145-148-11 30-20 55-27 77 12 6 24 12 37 18 26 52 53 103 97 142m-316-304c4-3 10-5 16-9 9-4 20-9 33-16-8-13-15-26-22-40 26 17 57 35 93 55 2 39 4 74 8 106-10-13-19-27-29-40-12 7-23 14-32 19-7 4-13 7-18 10-18-29-34-57-49-85m-47-357c1 15 6 32 14 51 12 22 28 47 48 74 2-13 3-27 5-40 19 51 42 104 69 160-31-5-57-9-79-13 0-10 0-22 1-33-20-25-37-48-49-69-9-19-15-36-19-50 2-26 5-53 10-80m210-301c-24 113-28 229-11 341 15-1 31-2 47-3-22 60-41 115-57 166-37-55-69-107-95-155 9-1 19-2 29-3-14-95-24-188-3-284 23-19 58-42 90-62m741 363c-88 43-176 83-261 121-80 34-154 65-221 92 17 21 34 42 52 63-86-19-162-38-229-56 10-60 21-125 35-196 15 20 30 41 45 62 53-42 113-87 178-135 71-53 146-107 223-161 62 68 121 139 178 210m-128 596c-123 10-251-55-346-118-6 9-11 18-17 27-44-50-89-106-133-166 63 11 134 20 213 28-8 15-16 29-23 42 92 58 264 131 404 126-35 24-67 45-98 61" horiz-adv-x="1000" />

<glyph glyph-name="tech-maxwick" unicode="&#xe806;" d="M455 569c15 3 30 5 45 5 19 0 37-3 54-7v166h50l-52 58-52 59-52-59-52-58h59v-164z m-177-218c0 17 2 34 6 50h-165v54l-59-52-59-52 59-52 59-52v55h165c-4 16-6 33-6 49m-121 196l41 41 116-116c18 28 42 52 71 69l-117 117 36 36-78 5-78 5 4-78 5-79z m464-9c28-19 51-43 69-71l117 117 37-37 5 79 4 78-78-5-78-5 40-40-116-116z m320-135l-59 52 0-54h-165c3-16 5-33 5-50 0-16-2-33-5-49h165l0-55 59 52 59 52-59 52z m-556-241c-29 17-53 41-71 68l-116-116-41 41-5-79-4-78 78 5 78 5-37 36 118 118z m459-7l-36-37-118 118c-18-28-41-52-69-71l117-116-41-41 78-5 78-5-4 78-5 79z m-290-19c-17-4-35-7-54-7-15 0-30 2-45 5v-165h-59l52-59 52-58 52 58 52 59h-50v167h0z" horiz-adv-x="1000" />

<glyph glyph-name="tech-durafresh" unicode="&#xe807;" d="M416 151c-42 17-78 48-103 86-88-22-194-25-289 5 25-106 85-199 167-266 72 17 161 93 225 175m219 32c-35-28-79-46-128-48-25-87-76-180-149-248 45-13 92-20 141-20 62 0 121 11 176 33 20 71-1 186-40 283m-354 141c-1 10-2 20-2 31 0 36 9 71 25 101-64 65-119 155-142 252-75-72-128-168-145-276 51-54 161-93 264-108m81 202c36 29 80 46 129 48 25 87 75 180 148 248-44 13-92 21-140 21-63 0-122-12-177-33-20-72 1-187 40-284m353-138c2-11 3-22 3-33 0-37-9-71-24-101 63-65 119-156 141-253 77 73 130 171 146 281-53 53-163 91-266 106m-134 170c42-17 78-47 102-85 88 23 194 26 290-3-26 106-86 198-168 264-72-19-160-94-224-176" horiz-adv-x="1000" />

<glyph glyph-name="tech-rebound" unicode="&#xe808;" d="M756 169l-39 11 0 0-220 65-1-1-306 87 272 77-220 65-205-60c-15-5-26-21-26-40v-84c0-19 11-35 26-39l145-43 0 0 313-92 1 1 87-26 31-9 0-1 218-64h-671l302 90-221 65-205-61c-15-4-26-20-26-39v-148c0-22 15-40 33-40h905c18 0 33 18 33 40v148c0 19-10 35-25 39l-123 36 0 0-78 23z m226 422v150c0 10-4 21-10 29-6 7-14 11-23 11l-905 0c-18 0-33-18-33-40v-150c0-19 11-35 26-39l237-70 221-64 1 0 306-87-273-77 221-65 207 61c15 4 25 20 25 39v84c0 19-10 35-25 39l-102 30v0l-6 2-132 38 0 0-220 65-1 0-334 101h669l-302-91 221-65 207 60c15 4 25 21 25 39" horiz-adv-x="1000" />

<glyph glyph-name="tech-chemicalresistant" unicode="&#xe809;" d="M569 369c-7-7-7-19 0-26l221-220c6-7 12-5 12 5v62c0 10 2 18 5 18s5 3 5 7c0 5-3 8-7 8s-7 8-7 18v271c0 10 3 18 7 18s7 3 7 7c0 4-2 8-5 8s-5 8-5 18v21c0 10-6 12-12 5l-221-220z m-379 371c0-10 6-23 13-30l282-282c7-7 18-7 25 0l280 280c6 7 12 20 12 30v39c0 10 3 18 6 18 3 0 6 4 6 8 0 4-8 9-18 11 0 0-119 26-299 26s-299-26-299-26c-9-2-17-7-17-11 0-4 2-8 4-8s5-8 5-18l0-37 0 0z m612-766c0 9-6 23-12 30l-280 280c-7 7-18 7-25 0l-282-282c-7-7-13-20-13-30v-47c0-9-2-17-5-17-2 0-4-4-4-8s8-9 17-11c0 0 145-27 294-27s304 27 304 27c10 2 18 7 18 11s-3 8-6 8-6 8-6 17v49z m-377 369c7 7 7 19 0 26l-222 222c-7 7-13 4-13-5v-23c0-10-2-18-5-18-2 0-4-4-4-8s3-7 6-7c4 0 7-8 7-18v-271c0-10-3-18-7-18-3 0-6-3-6-8 0-4 2-7 4-7 3 0 5-8 5-18v-64c0-10 6-12 13-5l222 222z" horiz-adv-x="1000" />

<glyph glyph-name="tech-channelneotech" unicode="&#xe80a;" d="M986 224c0 64-52 116-116 116-30 0-57-11-77-30-39-34-49-67-112-67-46 0-64 15-87 44-20 31-55 52-95 53l-1 0h-1 0 0-1l-1 0c-33-1-64-16-85-39-30-31-44-58-102-58-49 0-66 18-92 51-21 28-54 46-92 46-64 0-116-52-116-116 0-64 52-116 116-116 37 0 70 17 91 43 25 32 50 51 95 51 49 0 69-21 96-51 21-26 53-43 89-43h1 1 0 0 1 1c39 0 73 20 94 50 24 28 47 44 90 44 53 0 71-25 103-58 21-22 51-36 84-36 64 0 116 52 116 116m-187 217c0 64-52 116-116 116-30 0-57-11-78-29-38-35-48-68-111-68-49 0-67 18-92 52-22 27-55 45-92 45-65 0-116-52-116-116 0-64 51-116 116-116 36 0 69 17 90 44 26 32 50 50 95 50 54 0 72-24 103-58 22-22 52-36 85-36 64 0 116 52 116 116" horiz-adv-x="1000" />

<glyph glyph-name="tech-biogrip" unicode="&#xe80b;" d="M716 365l56 99h130l65-113-65-113h-130l-56 99h-96l-56-99h-130l-57 99h-95l-57-99h-130l-65 113 65 113h130l57-99h95l57 99h130l56-99h96v0z m42 123l-56-99h-68l-56 99h-158l-57-99h-67l-57 99h-158l-79-137 79-137h158l57 99h67l57-99h158l56 99h68l56-99h158l79 137-79 137-158 0 0 0z m42-201l-36 64 36 64h74l36-64-36-64h-74z m-339 0l-36 64 36 64h74l36-64-36-64h-74z m-340 0l-37 64 37 64h73l37-64-37-64h-73z m196 138h25l57 103-139 0 57-103z m339 0h24l57 103-139 0 58-103z m-339-153l-57-103 139 0-57 103h-25z m339 0l-58-103 139 0-57 103h-24z" horiz-adv-x="1000" />

<glyph glyph-name="tech-everdry" unicode="&#xe80c;" d="M590 794h-130c-19 0-35-16-35-35v-47-325-35h35 130 35v35 325 47c0 19-15 35-35 35m244-206h-38c-19 0-35-16-35-35v-21-121-35-5-1-6-12h35 38 35v35 145 21c0 19-16 35-35 35m-582-201v40 5c0 2 0 4 0 6v66 55 28c0 20-16 35-35 35h-66c-19 0-35-15-35-35v-28-132-45-9-21h35 66 35c0 0 0 35 0 35z m34-35h-34v-34-68c0-7 0-13 0-18 0-2 0-4 0-6v-53-211-22c0-19 15-35 34-35h104c19 0 35 16 35 35v22 356 34h-35-104z m-239 0h-34v-34-99-19c0-19 15-35 34-35h35c19 0 34 10 34 22v32 24 7 68 34h-34-35z m613 0h-35v-34-232-22c0-19 16-34 35-34h66c19 0 35 15 35 34v22 200 35 6 0 10 15h-35l-66 0 0 0z m292 0h-49-34v-34-149-25c0-19 15-35 34-35h49c19 0 35 16 35 35v25 149 34h-35z" horiz-adv-x="1000" />

<glyph glyph-name="tech-neotechlite" unicode="&#xe80d;" d="M272 627c5-16 11-32 16-47 30 32 60 64 90 93l-28-10 16 26c21 36 44 73 73 103-16-5-32-11-47-17-40-37-66-84-89-130l-2-3-3-2c-9-4-18-8-26-13m9-88l-7 17c-9 24-17 48-25 73l-3 9 8 4c10 5 21 11 32 16 23 47 50 96 93 134l1 1 2 1c33 13 67 24 102 33l69 18-60-37c-41-25-68-64-94-105 7 3 13 5 19 7l47 16-36-34c-46-43-92-90-137-140l-11-13z m-166-39c2-1 4-2 7-3 6-3 13-6 23-11l17-9-6-9c0-1-1-2-1-3 15 9 32 18 49 28 1 20 2 38 4 56-2-2-3-4-4-6l-6-8-20 12c-7 4-13 8-19 11-3 1-6 3-8 4-13-20-25-41-36-62m-17-97l19 37c5 9 10 19 15 28-7 4-14 7-20 10-3 2-6 3-8 4-4 2-6 4-9 5l-8 5 4 9c15 27 30 54 47 81l6 8 8-4c5-3 10-6 17-10 6-3 12-7 20-11l3-2c7 10 14 20 22 30l24 33-5-40c-4-29-6-62-8-100l0-6-5-3c-34-18-63-35-88-51l-34-23z m-40-170c1-8 1-15 2-23 0 0 0 0 0 0 12 23 27 46 47 73l16 22 3-22c12 30 26 62 41 94-16-3-32-5-46-8 0-7 0-15 1-22l0-4-3-3c-18-23-33-44-45-64-7-15-13-30-16-43m1-155l-13 79c-4 25-7 50-9 76l-1 2 1 1c3 15 10 32 18 50 13 21 28 42 45 64 0 9 0 19 0 28v9l9 2c22 3 46 7 75 11l20 3-9-18c-25-52-47-102-65-150l-15-41-6 43c0 4-1 7-1 11-12-17-21-32-29-47-7-16-11-31-12-44l-8-79z m134-140c15-12 35-26 61-43-19 103-21 205-6 302l2 10 30-2c3 0 5 0 8-1-15 43-29 84-42 122-25-38-49-77-69-113l22-2-1-12c-12-78-23-170-5-261m92-88l-21 14c-39 24-68 44-87 60l-3 2-1 4c-19 91-10 182 2 261l-2 1c-5 0-10 1-14 1l-17 1 8 15c26 47 57 97 91 148l12 18 7-21c15-49 33-102 54-157l5-16-16 1c-8 1-17 1-25 2l-10 0c-14-99-10-204 12-309l5-25z m121 468l11-9c54-42 115-88 168-128 63-45 130-94 201-144 52 57 101 116 148 175-74 36-152 72-230 106-74 32-144 61-209 87l-17 7 12 15c7 9 15 19 22 28-58-13-113-27-163-40 7-46 16-93 25-141 7 11 15 22 23 32l9 12z m385-319l-11 8c-75 52-146 104-212 152-49 37-106 79-157 119-6-9-12-17-18-26l-34-47-7 32c-12 64-24 126-33 186l-2 12 12 4c66 18 139 35 217 53l40 8-26-31c-12-15-24-30-36-45 60-24 124-51 191-80 85-37 168-76 248-114l15-8-10-14c-53-67-110-134-169-199l-8-10z m-301 672c-31-36-62-74-92-113 46 7 95 13 147 19 0 0 0 0 0 0-4 7-8 14-11 21l-7 11 11 7c85 54 225 111 346 120-18 12-35 22-53 32-6 0-13 0-19 0-86 0-186-37-296-111l-13-8-7 13c-2 3-4 6-6 9m-156-153l21 29c40 54 83 107 126 157l12 14 11-15c3-5 5-9 8-14 121 78 230 114 325 107l2-1 3-1c31-16 62-36 95-59l38-28-47 2c-119 4-270-54-363-110 1-2 3-5 4-8 4-6 7-13 11-19l10-19-21-2c-73-8-141-17-201-27l-34-6z" horiz-adv-x="1000" />

<glyph glyph-name="tech-snakeguard" unicode="&#xe80e;" d="M757-30l-562 84c0 0-102 15-163 206-1 3-3 19-8 19-10 0-6-18-7-15 0-271 161-303 161-303h583c32 0 7 7-4 9m-51 681l7 13 59-2 42-34-108 23z m243-66c-21 10-60 31-80 42h0c-1 1-3 2-4 3-18 10-39 24-53 38-11 10-21 27-31 31l-2 1c-8 0-27-1-41-1-18 0-33 2-50 2-20 1-40 1-59 1-14-1-73-5-118-13v0c0 0 0 0 0 0-4-1-7-1-10-2-117-22-144-104-159-147-19-59-50-194-55-217 0 0 0-4 3-4l596-127c4-1 2 5 2 6l-25 91c-4 14-12 30-36 37l-359 82c-8 2-7 8-7 9l29 100c0 0 14 60 60 59 3-7 6-11 6-11l40-75c0 0 54-77 57-79 8-4 5 9 1 20-4 11-16 48-17 63-4 49 20 50 20 50 27 9 95 7 145 2 29-7 62-18 73-21 5-1 9-3 13-4-31-60-99-81-99-81s84 24 121 72l1 0c16 5 38 16 51 27 25 20 9 35-13 46m-45-458c0 0 0 0 0 0-1 4-6 6-6 6l-616 125c-3 1-4-1-4-1l-35-132c0 0 0-5 3-5l685-130c0 0 4 0 3 3l-30 134z" horiz-adv-x="1000" />

<glyph glyph-name="tech-waterproof" unicode="&#xe80f;" d="M330 302c0 27 5 53 15 77 15 42 42 98 70 152-19-38-34-75-45-105-13-31-20-64-20-99 0-88 44-166 112-211-77 26-132 100-132 186m376 7c0 0 0 0 0 0 0 1 0 2 0 2 0 1 0 1 0 1s0 0-1 1c0 4-1 9-2 14-3 16-8 31-14 45-19 51-51 121-84 185-40 76-81 199-98 252-2 10-5 19-8 27-3-9-6-19-9-31-17-55-56-174-95-248-34-65-69-137-88-188-10-25-16-52-16-81 0-115 93-208 208-208s208 93 208 208c0 7-1 14-1 21m-212-401c164 0 316-17 441-47-67 60-237 102-437 102-198 0-367-41-435-100 123 28 271 45 431 45" horiz-adv-x="1000" />

<glyph glyph-name="tech-scentcombat" unicode="&#xe810;" d="M856 608c-114 28-212 78-356 178v0l0 0c-144-100-242-150-356-178-16-310 154-554 356-694h0l0 0c202 140 372 384 356 694z m-408-494c-2-2-4-2-4-2-2 0-2 0-4 2-2 2-4 6-2 8 32 64 10 116-16 176-28 66-60 140-26 244 0 4 4 4 8 4 4 0 6-4 6-6 4-90 32-156 54-208 32-76 60-138-16-218z m68 54c-2-2-4-2-4-2-2 0-2 0-4 2-2 2-4 6-2 8 32 64 10 116-16 176-28 66-60 140-26 244 0 4 4 4 8 4 4 0 6-4 6-6 4-90 32-156 54-208 32-76 58-136-16-218z m68 42c-2-2-4-2-4-2-2 0-2 0-4 2-2 2-4 6-2 8 32 64 10 116-16 176-28 66-60 140-26 244 0 2 4 4 8 4 4 0 6-4 6-6 4-90 32-156 54-208 32-76 58-136-16-218z" horiz-adv-x="1000" />

<glyph glyph-name="tech-stabilization" unicode="&#xe811;" d="M350 332h320c-60 94-114 108-160 108-46 2-98-12-160-108m432-66c0 0 20-72 32-94l32 94h-64z m-612 0l38-94c12 22 32 94 32 94h-70z m14-146l-128 212h220c84 144 156 240 234 240 78 0 150-98 234-240h208l-114-212h-56c-26 56-50 104-74 146h-396c-24-42-48-90-74-146h-54z" horiz-adv-x="1000" />

<glyph glyph-name="tech-shovel" unicode="&#xe812;" d="M576 642v168c0 22-152 22-152 0v-168c-72-4-146-14-234-26v-338c0-210 140-346 308-406 0 0 2 0 2 0 0 0 2 0 2 0 170 60 308 198 308 406v336c-88 14-162 24-234 28z m-32-252l-44-102v356 128l44-8v-122-252z" horiz-adv-x="1000" />

<glyph glyph-name="tech-fire" unicode="&#xe813;" d="M728 158c-12 74-52 158-92 220-40 62-74 140-62 248 12 108 42 162 42 162s-92-94-124-198c-32-104-24-182-2-244 10-24 0-26-10-2-36 88-104 106-104 106s24-38 22-82c-2-44-30-80-70-134-40-54-78-150-30-216 20-28 50-54 88-72-6 12-10 28-10 44 0 140 128 252 128 252s128-112 128-252c0-16-4-32-10-44 106 44 116 144 106 212z m-142-178c0-88-160-88-160 0 0 88 80 158 80 158s80-72 80-158z" horiz-adv-x="1000" />

<glyph glyph-name="tech-washable" unicode="&#xe814;" d="M696 776h-392c-80 0-146-66-146-146v-550c0-80 66-146 146-146h392c80 0 146 66 146 146v550c0 80-66 146-146 146z m-392-48h392c54 0 100-44 100-100v-30h-592v32c0 54 46 98 100 98z m392-748h-392c-54 0-100 44-100 100v472h590v-474c0-54-44-98-98-98z m-196 528c-128 0-232-104-232-232 0-128 104-232 232-232 128 0 232 104 232 232 0 128-104 232-232 232z m164-320c-48 4-52 40-52 50-2-12-8-48-52-48-52 0-50 50-50 50s0-54-52-54c-52 0-66 54-66 54s-2-50-48-50c-4 0-8 2-10 2-12 24-20 52-20 80 0 102 84 186 186 186 102 0 186-84 186-186 0-28-8-58-22-84z m-398 466c0 18 14 32 32 32 18 0 32-14 32-32 0-18-14-32-32-32-18 0-32 14-32 32z m372 0c0 10 8 20 20 20 10 0 20-8 20-20 0-10-8-20-20-20-10 2-20 10-20 20z m58 0c0 10 8 20 20 20 10 0 20-8 20-20 0-10-8-20-20-20-12 2-20 10-20 20z" horiz-adv-x="1000" />

<glyph glyph-name="tech-h2o" unicode="&#xe815;" d="M500 594c-10-30-26-70-40-98-14-26-34-64-44-90 0 0 0 0 0 0-4-10-8-22-8-34 0-48 42-88 92-88s92 40 92 88c0 2 0 6 0 10 0 0 0 0 0 0 0 0 0 0 0 0 0 0 0 0 0 0 0 2 0 4 0 6-2 6-4 14-6 20 0 0 0 0 0 0-10 24-24 56-42 88-18 30-32 68-44 98m0-336c-66 0-120 52-120 114 0 16 4 30 10 44 10 28 30 66 46 94 20 36 40 94 48 118 2 6 4 10 4 16 2 6 8 10 14 10h0c6 0 12-4 14-10 2-4 2-8 4-14 8-24 28-84 48-120 18-32 34-66 44-92 4-8 6-16 8-24 0-2 0-4 2-6 0-2 0-4 0-6 0-4 0-6 0-10-2-62-56-114-122-114m466 112c-2 0-4 0-6 0 2 0 4 0 6 0m-112 224c-10-30-26-70-40-98-14-26-34-64-44-90 0 0 0 0 0 0-4-10-8-22-8-34 0-48 42-88 92-88s92 40 92 88c0 2 0 6 0 10 0 0 0 0 0 0 0 0 0 0 0 0 0 0 0 0 0 0 0 2 0 4 0 6-2 6-4 14-6 20 0 0 0 0 0 0-10 24-24 56-42 88-18 30-34 68-44 98m0-336c-66 0-120 52-120 114 0 16 4 30 10 44 10 28 30 66 46 94 20 36 40 94 48 118 2 6 4 10 4 16 2 6 8 10 14 10h0c6 0 12-4 14-10 2-4 2-8 4-14 8-24 28-84 48-120 18-32 34-66 44-92 4-8 6-16 8-24 0-2 0-4 2-6 0-2 0-2 0-4 0 0 0 0 0 0 0-4 0-8 0-10-2-64-56-116-122-116m-596 112c-2 0-4 0-6 0 2 0 4 0 6 0m-112 224c-10-30-26-70-40-98-14-26-34-64-44-90 0 0 0 0 0 0-4-10-8-22-8-34 0-48 42-88 92-88 50 0 92 40 92 88 0 4 0 6 0 8 0 0 0 0 0 0 0 0 0 0 0 0 0 0 0 0 0 0 0 2 0 4 0 6-2 6-4 14-6 20 0 0 0 0 0 0-10 24-24 56-42 88-18 32-32 72-44 100m0-336c-66 0-120 52-120 114 0 16 4 30 10 44 10 30 30 68 44 94 20 36 40 94 48 118 2 6 4 10 4 16 4 6 8 10 14 10h0c6 0 12-4 14-10 2-4 2-8 4-14 8-24 28-84 48-120 18-32 34-66 44-92 4-8 6-16 8-24 0-2 0-4 2-6 0-2 0-2 0-4 0 0 0 0 0 0v0c0-4 0-8 0-10 2-64-52-116-120-116m154 198l-64 108 172 0-62-108h-46z m354 0l-64 108 172 0-62-108h-46z m-298-160l74-108-194 0 64 108h56z m344 0l62-108-194 0 74 108h58z" horiz-adv-x="1000" />

<glyph glyph-name="tech-extremechemical" unicode="&#xe816;" d="M824 418c-36 20-76 32-114 32 18 34 28 70 28 110 0 110-74 202-176 228v-40c62-24 106-86 106-156 0-92-76-168-168-168-92 0-168 76-168 168 0 70 44 132 106 156v40c-100-28-176-120-176-228 0-40 10-78 28-112-40 0-80-10-116-32-94-54-136-164-108-264l36 20c-10 66 20 134 82 170 80 46 182 18 230-62 46-80 18-182-62-230-62-36-136-28-188 14l-36-20c74-74 190-92 286-38 38 22 68 52 88 88 20-36 50-66 88-88 94-54 212-36 286 38l-36 20c-52-42-126-50-188-14-80 46-108 150-62 230 46 80 150 108 230 62 62-36 92-104 82-170l36-20c24 100-18 210-114 266z m-302-102l-22-40-22 40-22 40h44 46l-24-40z m-186 10c0 0 0-2 0-2 0-58 30-112 80-142-2-28-12-54-26-76-82 42-134 126-134 218 0 6 0 12 0 20 30 0 56-6 80-18z m330-2c0 0 0 2 0 2 24 12 52 18 78 16 0-6 0-12 0-20 0-92-52-176-134-218-16 22-24 48-26 76 50 32 82 86 82 144z m-164 244c50 0 96-14 138-42-12-24-30-46-52-62-26 16-56 24-86 24-30 0-60-8-84-24-22 16-40 36-52 62 40 28 86 42 136 42z" horiz-adv-x="1000" />

<glyph glyph-name="temp-cold" unicode="&#xe817;" d="M468 208c0-12-10-22-22-22-12 0-22 10-22 22 0 12 10 22 22 22 14 0 22-10 22-22m248-220c0 12-10 22-22 22-12 0-22-10-22-22 0-12 10-22 22-22 14 0 22 10 22 22m-66 66l16 8c4 2 6 6 4 10-2 4-8 6-10 2l-24-14-4 2 12 8c4 2 4 8 2 10-2 4-8 4-10 2l-18-12-18 10c0 2 0 4 0 8 0 2 0 6-2 8l18 10 18-12c2 0 2-2 4-2 2 0 6 2 6 4 2 4 2 8-2 10l-12 8 6 4 22-14c2 0 2-2 4-2 2 0 6 2 6 4 2 4 2 8-2 10l-16 10 8 4c4 2 4 8 2 10-2 4-8 4-10 2l-8-4 0 18c0 4-4 8-8 8-4 0-8-4-8-8l0-26-4-2 0 14c0 4-4 8-8 8-4 0-8-4-8-8l2-22-18-10c-4 4-8 6-12 6v20l18 10c4 2 6 6 4 10-2 4-6 6-10 4l-12-6v6l22 12c4 2 6 6 4 10-2 4-6 6-10 4l-16-8v12c0 4-4 8-8 8-4 0-8-4-8-8v-10l-16 10c-4 2-8 0-10-2-2-4 0-8 2-10l24-14v-4l-12 6c-4 2-8 0-10-4-2-4 0-8 4-10l20-10v-20c-4-2-8-4-12-8l-18 10 2 20c0 4-4 8-8 8-4 0-8-2-8-8l0-14-6 4 2 26c0 4-4 8-8 8-4 0-8-4-8-8l0-18-6 4c-4 2-8 0-10-2-2-4 0-8 2-10l6-4-16-8c-4-2-6-6-2-10 2-2 4-4 6-4 2 0 2 0 4 2l24 14 4-2-12-8c-4-2-4-8-2-10 2-2 4-4 6-4 2 0 4 0 4 2l18 12 18-10c0-2 0-4 0-8 0-2 0-4 2-8l-18-10-18 12c-4 2-8 2-10-2-2-4-2-8 2-10l12-8-6-4-22 14c-4 2-8 2-10-2-2-4-2-8 2-10l16-10-12-8c-4-2-6-8-2-10 2-2 4-4 6-4 2 0 2 0 4 2l6 4 0-18c0-4 4-8 8-8h0c4 0 8 4 8 8l0 26 4 2 2-14c0-4 4-8 8-8h0c4 0 8 4 8 8l-2 22 18 10c4-4 8-6 12-6v-22l-18-10c-4-2-6-6-4-10 2-2 4-4 8-4 2 0 2 0 4 0l12 6v-6l-22-12c-4-2-6-6-4-10 2-2 4-4 6-4 2 0 2 0 4 0l16 8v-6c0-4 4-8 8-8 4 0 8 4 8 8v8l16-10c4-2 8 0 10 2 2 4 0 8-2 10l-24 14v4l12-6c4-2 8 0 10 4 2 4 0 8-4 10l-20 10v22c4 2 8 4 12 8l18-10-2-22c0-4 2-8 8-8h0c4 0 8 4 8 8l0 14 6-2-2-26c0-4 4-8 8-8h0c4 0 8 4 8 8l0 18 8-4c2 0 2-2 4-2 2 0 6 2 6 4 2 4 0 8-2 10l-8 4z m-198-94l-10-6-2 0 6 4c2 2 2 4 2 4-2 2-4 2-4 2l-8-6-8 4c0 0 0 2 0 4 0 2 0 2 0 4l8 4 4-4c0 0 2 0 2 0 2 0 2 0 2 2 2 2 0 4-2 4l-2 2 2 2 10-6c0 0 2 0 2 0 2 0 2 0 4 2 2 2 0 4-2 4l-6 4 4 2c2 2 2 4 2 4-2 2-4 2-4 2l-8-2 0 8c0 2-2 4-4 4-2 0-4-2-4-4l0-12-2-2 0 6c0 2-2 4-4 4-2 0-4-2-4-4l0-10-6-4c-2 2-4 2-6 4v10l8 4c2 0 2 4 2 4 0 2-4 2-4 2l-6-2v2l10 6c2 0 2 4 2 4 0 2-4 2-4 2l-8-4v4c0 2-2 4-4 4-2 0-4-2-4-4v-4l-6 2c-2 2-4 0-4-2 0-2 0-4 2-4l10-6v-2l-6 2c-2 0-4 0-4-2 0-2 0-4 2-4l8-4v-10c-2 0-4-2-6-4l-8 4 0 10c0 2-2 4-4 4-2 0-4-2-4-4l0-6-2 2 0 12c0 2-2 4-4 4-2 0-4-2-4-4l0-8-2 2c-2 2-4 0-4-2-2-2 0-4 2-4l2-2-8-4c-2 0-2-4-2-4 0-2 2-2 4-2 0 0 2 0 2 0l10 6 2-2-6-4c-2-2-2-4-2-6 0-2 2-2 4-2 0 0 2 0 2 0l8 6 8-4c0 0 0-2 0-4 0-2 0-2 0-4l-8-4-8 6c-2 2-4 0-4 0-2-2 0-4 2-6l6-4-2-2-10 6c-2 2-4 0-6-2 0-2 0-4 2-6l6-4-2-2c-2-2-2-4-2-6 0-2 2-2 4-2 0 0 2 0 2 0l2 2 0-8c0-2 2-4 4-4 2 0 4 2 4 4l0 12 2 2 0-6c0-2 2-4 4-4h0c2 0 4 2 4 4l0 10 8 4c2-2 4-2 6-4v-10l-10 6c-2 0-2-4-2-4 0-2 2-2 4-2 0 0 2 0 2 0l6 2v-2l-10-6c-2 0-2-4-2-4 0-2 2-2 4-2 0 0 2 0 2 0l8 4v-2c0-2 2-4 4-4 2 0 4 2 4 4v4l8-4c2 0 4 0 4 2 2 2 0 4-2 4l-10 6v2l6-2c2 0 4 0 4 2 0 2 0 4-2 4l-8 4v10c2 0 4 2 6 4l8-4 0-10c0-2 2-4 4-4h0c2 0 4 2 4 4l0 6 2-2 0-12c0-2 2-4 4-4h0c2 0 4 2 4 4l0 8 4-2c0 0 2 0 2 0 2 0 2 0 4 2 2 2 0 4-2 4l-4 2 8 4c2 0 2 4 2 4-10 0-12 0-14 0m316 434l0 0c-14 88-92 158-184 158-64 0-124-34-158-86-20 4-40 6-62 4-88-8-158-78-168-166-12-112 76-206 186-206h2c16 0 30 14 30 30v2c0 16-12 28-28 28h0c-66 0-126 54-128 120-2 72 54 130 126 130 16 0 32-4 46-10 16-6 32 2 38 16 20 46 66 74 114 74 70 0 126-56 126-126l0 0c0-2 0-2 0-4 0-14 8-26 22-30 6-2 12-2 18 0 6 2 14 2 20 2 52 0 92-44 88-96-4-46-44-80-90-80h-36c-16 0-30-14-30-30v0c0-16 14-30 30-30h36c80 0 150 62 152 144 2 86-66 156-150 156z" horiz-adv-x="1000" />

<glyph glyph-name="temp-mild" unicode="&#xe818;" d="M576 22c2-18-12-40-34-44-22-4-42 8-46 30-6 32 16 58 24 114 22-54 52-70 56-100m28 222c-10-64-34-92-28-130 4-26 28-38 52-34 26 4 42 32 40 50-4 38-38 56-64 114m-148-4c-6-40-22-58-18-82 4-16 18-24 34-22 16 2 26 20 26 32-4 24-24 36-42 72m312 154l0 0c-14 88-92 158-184 158-64 0-124-34-158-86-20 4-40 6-62 4-88-8-158-78-168-166-12-112 76-206 186-206h2c16 0 30 14 30 30v2c0 16-12 28-28 28h0c-66 0-126 54-128 120-2 72 54 130 126 130 16 0 32-4 46-10 16-6 32 2 38 16 20 46 66 74 114 74 70 0 126-56 126-126l0 0c0-2 0-2 0-4 0-14 8-26 22-30 6-2 12-2 18 0 6 2 14 2 20 2 52 0 92-44 88-96-4-46-44-80-90-80h-36c-16 0-30-14-30-30v0c0-16 14-30 30-30l36 0c80 0 150 62 152 144 2 86-66 156-150 156z m-662 80h46c12 0 22 10 22 22 0 12-10 22-22 22h-46c-12 0-22-10-22-22-2-12 10-22 22-22z m90 152c8-8 24-8 32 0 8 8 8 24 0 32l-32 32c-10 10-24 10-32 0-8-8-8-24 0-32l32-32z m162 54c12 0 22 10 22 22v46c0 12-10 22-22 22s-22-10-22-22v-46c-2-12 8-22 22-22z m162-54l32 32c8 10 8 24 0 32-8 8-24 8-32 0l-32-32c-8-8-8-24 0-32 8-10 22-10 32 0z m-270-172c-6 14-8 28-8 44 0 62 52 114 114 114 46 0 86-28 104-68 2 0 4 2 6 2 10 8 22 14 34 20-26 54-80 90-144 90-88 0-158-72-158-158 0-30 8-56 22-80 6 14 18 26 30 36z" horiz-adv-x="1000" />

<glyph glyph-name="temp-frigid" unicode="&#xe819;" d="M916 240c-2-80-72-142-152-142h-36c-16 0-30 14-30 30v0c0 16 14 30 30 30h36c46 0 86 34 90 80 4 52-36 96-88 96-6 0-14 0-20-2-6-2-12-2-18 0-14 4-22 16-22 30 0 2 0 2 0 4l0 0c0 68-56 126-126 126-50 0-94-30-114-74-6-14-24-22-38-16-16 6-30 10-46 10-70 0-128-58-126-130 2-66 62-120 128-120h0c16 0 28-12 28-28v-2c0-16-14-30-30-30h-2c-110 0-196 94-186 206 8 88 80 158 168 166 20 2 42 0 62-4 36 48 96 80 160 80 92 0 170-68 184-156l0 0c84 0 152-70 148-154z m-228-206c0 30-24 56-54 58-2 0-2 0-4 0-10 0-20-8-20-20s8-20 20-20c10 0 20-8 20-20 0-10-8-20-20-20h-30c-10 0-20-8-20-20 0-10 8-20 20-20h30l0 0c32 4 58 30 58 62z m-98 40c0 30-24 56-54 58-2 0-2 0-4 0-10 0-20-8-20-20 0-10 8-20 20-20 10 0 20-8 20-20s-8-20-20-20h-20-68-124l0 0c-2 0-2 0-4 0-30-2-54-26-54-58 0-32 26-58 58-58h20 38 30 38 30 38 20c10 0 20-8 20-20 0-10-8-20-20-20-10 0-20-8-20-20 0-10 8-20 20-20 2 0 2 0 4 0 30 2 54 26 54 58 0 32-26 58-58 58h-20-38-30-38-30-38-20c-10 0-20 8-20 20 0 10 8 20 20 20h126 68 20c30 4 56 30 56 62z" horiz-adv-x="1000" />

<glyph glyph-name="temp-cold-numbers" unicode="&#xe81a;" d="M428 414c0-8-6-16-16-16-8 0-16 6-16 16 0 8 6 16 16 16 10-2 16-8 16-16m178-160c0 8-6 16-16 16-8 0-16-6-16-16 0-8 6-16 16-16 10 0 16 8 16 16m-48 48l10 6c2 2 4 4 2 8-2 2-6 4-8 2l-14-8-2 2 8 6c2 2 4 6 2 8-2 2-6 4-8 2l-12-8-16 4c0 2 0 4 0 6 0 2 0 4 0 6l12 8 12-8c0 0 2 0 4 0 2 0 4 0 4 2 2 2 2 6-2 8l-6 4 4 2 16-10c0 0 2 0 2 0 2 0 4 0 4 2 2 2 0 6-2 8l-10 6 6 2c2 2 4 6 2 8-2 2-6 4-8 2l-6-4 0 12c0 4-2 6-6 6-4 0-6-2-6-6l0-20-2-2 0 10c0 4-2 6-6 6-4 0-6-4-6-6l2-16-12-8c-2 2-6 4-8 4v14l12 10c2 2 4 4 2 8-2 2-4 4-8 2l-8-4v4l16 8c2 2 4 4 2 8-2 2-4 4-8 2l-12-6v6c0 4-2 6-6 6-4 0-6-2-6-6v-6l-12 6c-2 2-6 0-8-2-2-2 0-6 2-8l16-10v-4l-8 4c-2 2-6 0-8-2-2-2 0-6 2-8l14-6v-12c-4 0-6-2-8-6l-14 8 2 16c0 4-2 6-6 6-2 0-6-2-6-6l0-10-4 2 0 18c0 4-2 6-6 6-4 0-6-2-6-6l0-12 2 4c-2 2-6 0-8-2-2-2 0-6 2-8l4-2-12-8c-2-2-4-4-2-8 2-2 2-2 4-2 0 0 2 0 2 0l16 10 2-2-8-6c-2-2-4-6-2-8 2-2 2-2 4-2 2 0 2 0 4 2l12 8 12-8c0-2 0-4 0-6 0-2 0-4 0-6l-12-8-12 8c-2 2-6 2-8-2-2-2-2-6 2-8l8-6-4-2-16 10c-2 2-6 0-8-2-2-2 0-6 2-8l10-6-4-2c-2-2-4-6-2-8 2-2 2-2 4-2 0 0 2 0 2 0l4 2 0-12c0-2 2-6 6-6h0c4 0 6 2 6 6l0 20 2 2 0-10c0-2 2-6 6-6h0c4 0 6 2 6 6l-2 16 12 8c2-2 6-4 8-4v-16l-14-6c-2-2-4-4-2-8 0-2 4-4 6-4 0 0 2 0 2 0l8 4v-4l-16-8c-2-2-4-4-2-8 0-2 2-4 6-4 0 0 2 0 2 0l12 6v-4c0-4 2-6 6-6 4 0 6 2 6 6v6l12-6c2-2 6 0 8 2 2 2 0 6-2 8l-16 10v4l8-4c2-2 6 0 8 2 2 2 0 6-2 8l-14 6v18c4 0 6 2 8 6l14-8-2-16c0-4 2-6 6-6h0c2 0 6 2 6 6l0 10 4-2 0-18c0-4 2-6 6-6h0c4 0 6 2 6 6l0 12 6-2c0 0 2 0 2 0 2 0 4 0 4 2 2 2 0 6-2 8l0 0z m-142-68l-8-4-2 0 4 2c2 0 2 2 0 4 0 2-2 2-4 0l-6-4-6 4c0 0 0 2 0 2 0 0 0 2 0 2l6 4 6-4c0 0 0 0 2 0 0 0 2 0 2 2 0 2 0 2 0 4l-4 2 2 2 8-4c0 0 0 0 2 0 0 0 2 0 2 2 0 2 0 2 0 4l-6 4 2 2c2 0 2 2 0 4 0 2-2 2-4 0l-2-2 0 6c0 2-2 2-2 2-2 0-2-2-2-2l0-8-2 0 0 4c0 2-2 2-2 2-2 0-2-2-2-2l0-8-6-4c-2 2-2 2-4 2v6l6 4c2 0 2 2 2 4 0 2-2 2-4 2l-4-2v2l8 4c2 0 2 2 2 4 0 2-2 2-4 2l-6-2v2c0 2-2 2-2 2-2 0-2-2-2-2v-2l-6-4c-2 0-2 0-4 0 0-2 0-2 0-4l8-4v-2l-4 0c-2 0-2 0-4-2 0-2 0-2 2-4l6-4v-6c-2 0-2-2-4-2l-6 6 0 6c0 2 0 2-2 2-2 0-2 0-2-2l0-4-2 2 0 8c0 2-2 2-2 2-2 0-2-2-2-2l0-6-4 2c-2 0-2 0-4 0 0-2 0-2 0-4l2-2-6-2c-2 0-2-2 0-4 0 0 2-2 2-2 0 0 0 0 2 0l8 4 2 0-4-2c-2 0-2-2 0-4 0 0 2-2 2-2 0 0 0 0 2 0l6 4 6-4c0 0 0-2 0-2 0 0 0-2 0-2l-6-4-6 4c-2 0-2 0-4 0 0-2 0-2 0-4l4-2-2-2-8 4c-2 0-2 0-4 0 0-2 0-2 0-4l4-4-2-2c-2 0-2-2 0-4 0 0 2-2 2-2 0 0 0 0 2 0l2 2 0-6c0-2 2-2 2-2 2 0 2 2 2 2l0 10 2 0 0-4c0-2 2-2 2-2h0c2 0 2 2 2 2l0 6 6 4c2-2 2-2 4-2v-8l-6-4c-2 0-2-2-2-4 0 0 2-2 2-2 0 0 0 0 2 0l4 2v-2l-4 2c-2 0-2-2-2-4 0 0 2-2 2-2 0 0 0 0 2 0l6 2v-2c0-2 2-2 2-2 2 0 2 2 2 2v6l6-4c2 0 2 0 4 0 0 2 0 2 0 4l-8 4v2l4-2c2 0 2 0 4 2 0 2 0 2-2 4l-6 4v6c2 0 2 2 4 2l6-4 0-6c0-2 0-2 2-2h0c2 0 2 2 2 2l0 4 2 0 0-8c0-2 2-2 2-2h0c2 0 2 2 2 2l0 6 2-2c0 0 0 0 2 0 0 0 2 0 2 2 0 2 0 2 0 4l-2 2 6 2c2 0 2 2 0 4 0-2-2-2-4-2m228 312l0 0c-10 64-66 114-132 114-46 0-88-24-114-62-14 4-30 4-44 4-62-6-114-56-120-120-8-80 54-148 134-148h0c12 0 22 10 22 22v2c0 12-10 20-20 20h0c-48 0-90 40-92 86-2 52 40 94 90 94 12 0 22-2 34-6 10-4 24 2 28 12 14 32 46 54 82 54 50 0 90-40 90-90l0 0c0 0 0-2 0-2 0-10 6-18 16-22 4-2 8 0 12 0 6 2 10 2 14 2 36 0 66-32 62-70-4-32-32-58-64-58h-26c-12 0-22-10-22-22v0c0-12 10-22 22-22h26c58 0 108 46 110 104 2 58-48 110-108 108z m-160-488c10 0 18 8 18 16v0c0 10-8 16-18 16s-18-8-18-16v0c2-10 10-16 18-16z m0 6c-4 0-8 4-8 8v0c0 4 4 8 8 8 4 0 8-4 8-8v0c2-4-2-8-8-8z m34-44h16v28h34v14h-34v14h38v14h-54v-70z m-280-116c34 0 56 22 56 52v0c0 30-20 40-42 44l40 38v26h-106v-30h62l-38-38 6-22h14c20 0 30-8 30-20v0c0-12-10-18-22-18-16 0-28 6-38 18l-22-24c12-16 32-26 60-26z m150 0c42 0 70 36 70 80v0c0 46-28 80-70 80-42 0-70-36-70-80v0c2-46 30-80 70-80z m2 30c-20 0-34 22-34 50v0c0 28 14 50 34 50 20 0 34-22 34-50v0c0-28-14-50-34-50z m438 64c4 0 10 4 10 8v0c0 4-4 8-10 8s-8-2-8-8v0c0-4 4-8 8-8z m0 4c-2 0-4 2-4 4v0c0 2 2 4 4 4 2 0 4-2 4-4v0c2-2 0-4-4-4z m-130-86c18 0 30 12 30 26v0c0 16-10 22-22 24l20 20v14h-56v-16h32l-20-20 2-12h8c10 0 16-4 16-10v0c0-6-4-10-12-10-8 0-14 4-20 10l-10-12c8-8 18-14 32-14z m84 2h18v18h12v14h-12v50h-16l-46-52 2-12h40v-18z m-22 32l22 26v-26h-22z m-134-8h32v14h-32v-14z m-516 20h48v22h-48v-22z m750 20c6 0 10 2 14 6l-4 4c-2-2-4-4-8-4-6 0-10 4-10 10v0c0 6 4 10 10 10 4 0 6-2 8-4l4 6c-2 2-6 4-12 4-10 0-16-8-16-16v0c-2-10 6-16 14-16z m-334-98h28l100 206h-28l-100-206z" horiz-adv-x="1000" />

<glyph glyph-name="temp-frigid-numbers" unicode="&#xe81b;" d="M128-22h46v-22h-46v22z m336 92l0 0c0 10 8 16 18 16 10 0 18-8 18-16v0c0-8-8-16-18-16-10 0-18 8-18 16z m26 0l0 0c0 4-4 8-8 8-4 0-8-4-8-8v0c0-4 4-8 8-8 4 0 8 4 8 8z m24 16h52v-14h-38v-14h32v-14h-32v-26h-16v68z m-298-168c-12 12-18 28-18 58v0c0 48 22 84 68 84 20 0 34-6 48-16l-18-26c-10 8-18 12-32 12-20 0-28-16-32-36 8 6 16 10 32 10 30 0 54-16 54-50v0c0-32-26-54-58-54-20 2-34 8-44 18z m68 36l0 0c0 14-10 22-26 22s-26-10-26-22v0c0-12 10-22 26-22 18 0 26 8 26 22z m56-28l20 24c12-10 24-16 36-16 16 0 26 8 26 22v0c0 14-12 20-28 20-10 0-18-2-26-6l-20 12 4 76h94v-28h-66l-2-26c6 2 12 2 20 2 30 0 54-14 54-50v0c0-32-24-54-58-54-20 0-38 8-54 24z m462 78l0 0c0 4 4 8 10 8s10-4 10-8v0c0-4-4-8-10-8s-10 2-10 8z m14 0l0 0c0 2-2 4-4 4-2 0-4-2-4-4v0c0-2 2-4 4-4 2-2 4 2 4 4z m-154-76l10 12c6-6 12-8 20-8 8 0 14 4 14 12v0c0 6-6 12-14 12-6 0-10-2-14-4l-10 6 2 40h50v-16h-34l0-14c4 0 6 2 10 2 16 0 28-8 28-26v0c0-18-12-28-30-28-16-2-24 4-32 12z m114 6h-40l-2 12 44 52h16v-50h10v-14h-10v-18h-18v18z m0 14v26l-22-26h22z m-156 8h32v-14h-32v14z m206 40l0 0c0 10 6 16 16 16 6 0 10-2 12-4l-4-6c-2 2-4 4-8 4-6 0-10-4-10-10v0c0-6 4-10 10-10 4 0 6 2 8 4l4-4c-4-4-6-6-14-6-8-2-14 6-14 16z m-206 90h28l-98-204h-28l98 204z m24 462l0 0c-10 64-66 114-132 114-46 0-88-24-114-62-14 4-30 4-44 4-62-6-114-56-120-120-8-80 54-148 134-148h0c12 0 22 10 22 22v2c0 12-10 20-20 20h0c-48 0-90 40-92 86-2 52 40 94 90 94 12 0 22-2 34-6 10-4 24 2 28 12 14 32 46 54 82 54 50 0 90-40 90-90l0 0c0 0 0-2 0-2 0-10 6-18 16-22 4-2 8 0 12 0 6 2 10 2 14 2 36 0 66-32 62-70-4-32-32-56-64-56h-26c-12 0-22-10-22-22v0c0-12 10-22 22-22l26 0c58 0 108 46 110 102 0 58-48 108-108 108z m-100-300l0 0h-20c-8 0-14 6-14 14 0 8 6 14 14 14h20c8 0 14 6 14 14 0 8-6 14-14 14s-14 6-14 14c0 8 6 14 14 14 0 0 2 0 2 0 22-2 38-20 38-42 2-24-18-42-40-42z m-70 28h-14-48-92c-8 0-14-6-14-14 0-8 6-14 14-14h14 28 20 28 20 30 14c24 0 42-18 42-42 0-22-18-40-38-42 0 0-2 0-2 0-8 0-14 6-14 14 0 8 6 14 14 14 8 0 14 6 14 14 0 8-6 14-14 14h-16-28-20-28-20-28-16c-24 0-42 18-42 42 0 22 18 40 38 42 0 0 2 0 2 0l0 0h90 52 14c8 0 14 6 14 14 0 8-6 14-14 14-8 0-14 6-14 14 0 8 6 14 14 14 0 0 2 0 2 0 22-2 38-20 38-42 2-24-16-42-40-42z" horiz-adv-x="1000" />

<glyph glyph-name="temp-mild-numbers" unicode="&#xe81c;" d="M504 278c2-12-10-28-26-32-16-2-30 6-34 22-4 24 12 42 18 82 18-38 40-50 42-72m20 160c-6-46-26-66-20-94 4-18 20-28 38-24 18 4 30 22 28 36-2 28-26 40-46 82m-106-2c-4-28-16-42-12-58 2-12 12-18 24-16 12 2 20 14 18 24-2 16-18 24-30 50m224 110l0 0c-10 64-66 112-132 112-46 0-88-24-114-62-14 4-30 4-44 4-62-6-114-56-120-120-8-80 54-148 134-148h0c12 0 22 10 22 22v2c0 12-10 20-20 20h0c-48 0-90 38-92 86-2 52 40 94 90 94 12 0 22-2 34-6 10-4 24 2 28 12 14 32 46 54 82 54 50 0 90-40 90-90l0 0c0 0 0-2 0-2 0-10 6-18 16-22 4-2 8 0 12 0 6 2 10 2 14 2 36 0 66-32 62-70-4-32-32-56-64-56h-26c-12 0-22-10-22-22v0c0-12 10-22 22-22h26c58 0 108 46 110 102 2 60-48 110-108 110z m-476 58h34c10 0 16 8 16 16 0 10-8 16-16 16h-34c-10 0-16-8-16-16 0-10 8-16 16-16z m64 108c6-6 16-6 24 0 6 8 6 18 0 24l-24 24c-6 6-16 6-24 0-6-6-6-16 0-24l24-24z m118 40c10 0 16 8 16 16v32c0 10-8 16-16 16-10 0-16-8-16-16v-32c-2-10 6-16 16-16z m116-40l24 24c6 6 6 16 0 24-6 6-16 6-24 0l-24-24c-6-6-6-16 0-24 6-6 18-6 24 0z m-194-122c-4 10-6 20-6 32 0 46 36 82 82 82 34 0 62-20 74-48 2 0 2 2 4 2 8 4 16 8 24 12-18 38-58 64-102 64-62 0-114-52-114-114 0-20 6-40 16-58 6 12 12 20 22 28z m180-500c10 0 20 8 20 18v0c0 10-10 18-20 18s-20-8-20-18v0c0-10 10-18 20-18z m0 8c-6 0-10 4-10 10v0c0 6 4 10 10 10 6 0 10-4 10-10v0c0-4-6-10-10-10z m36-50h18v30h38v16h-38v16h42v16h-60v-78z m-292-128h38v176h-26l-50-16 8-30 30 8v-138z m162 0h36v38h24v32h-24v108h-32l-96-112 6-28h86v-38z m-48 70l46 54v-54h-46z m498 34c6 0 10 4 10 10v0c0 6-4 10-10 10s-10-4-10-10v0c0-6 6-10 10-10z m0 4c-2 0-6 2-6 6v0c0 2 2 6 6 6 2 0 6-2 6-6v0c0-4-2-6-6-6z m-134-94h20v92h-14l-26-8 4-16 16 4v-72z m80-2c24 0 42 20 42 48v0c0 26-16 48-40 48-24 0-42-20-42-48v0c0-26 16-48 40-48z m0 18c-12 0-20 12-20 30v0c0 16 8 30 20 30 12 0 20-12 20-30v0c0-16-8-30-20-30z m-144 12h36v16h-36v-16z m234 42c6 0 12 2 14 6l-6 6c-2-2-6-4-10-4-6 0-10 6-10 12v0c0 6 4 12 10 12 4 0 6-2 10-4l6 6c-4 4-8 6-14 6-12 0-18-8-18-18v0c0-12 8-22 18-22z m-346-108h32l112 232h-32l-112-232z" horiz-adv-x="1000" />

<glyph glyph-name="tech-degree" unicode="&#xe81d;" d="M500 766c-224 0-404-182-404-404 0-224 182-404 404-404 224 0 404 182 404 404 0 222-180 404-404 404z m0-580c-96 0-176 78-176 176 0 96 78 176 176 176 96 0 176-78 176-176 0-98-78-176-176-176z" horiz-adv-x="1000" />

<glyph glyph-name="temp-cold-center" unicode="&#xe81e;" d="M388 332c0-16-12-28-28-28-16 0-28 12-28 28 0 16 12 28 28 28 14-2 28-14 28-28m316-282c0 16-12 28-28 28-16 0-28-12-28-28 0-16 12-28 28-28 16 0 28 12 28 28m-86 86l20 12c4 2 6 8 4 14-2 4-10 6-14 4l-30-18-4 2 14 10c4 4 6 10 2 14-4 4-10 6-14 2l-22-14-22 14c0 2 2 6 2 8 0 4 0 6-2 10l22 14 22-14c2 0 4-2 6-2 4 0 6 2 8 4 4 4 2 10-2 14l-14 10 6 4 28-18c2-2 4-2 6-2 4 0 6 2 8 4 2 4 2 10-4 14l-20 12 8 6c4 2 6 10 4 14-2 4-8 6-14 4l-10-6 0 22c0 6-4 10-10 10-6 0-10-4-10-10l0-34-6-4-2 16c0 6-6 10-10 10-6 0-10-6-10-10l2-28-20-14c-4 4-10 8-16 8v26l24 12c6 2 8 8 4 14-2 6-8 8-14 4l-16-8v8l30 16c4 2 6 8 4 14-2 4-8 6-14 4l-20-10v10c0 6-4 10-10 10-6 0-10-4-10-10v-12l-20 12c-4 2-10 0-14-4-2-4-2-10 4-14l30-18v-6l-16 8c-4 2-10 0-14-4-2-6 0-10 4-14l24-12v-26c-6-2-12-4-16-8l-24 14 2 26c0 6-4 10-10 10-6 0-10-4-10-10l-2-18 0 8 2 32c0 6-4 10-10 10-6 0-10-4-10-10l0-22-6 4c-4 2-10 2-14-4-2-4-2-10 4-14l8-4-20-12c-4-2-6-8-4-14 2-4 6-6 8-6 2 0 4 0 4 2l30 18 6-4-14-10c-4-4-6-10-2-14 2-2 6-4 8-4 2 0 4 0 6 2l22 14 22-14c0-2-2-6-2-8 0-4 0-6 2-10l-22-14-22 14c-4 2-10 2-14-2-4-4-2-10 2-14l14-10-6-4-28 18c-4 4-10 2-14-4-2-4-2-12 4-14l20-12-10 0c-4-2-6-10-4-14 2-4 6-6 8-6 2 0 4 0 6 2l8 4 0-22c0-6 4-10 10-10h0c6 0 10 4 10 10l0 34 6 4 2-18c0-6 4-10 10-10h0c6 0 10 6 10 10l-2 28 22 14c4-4 10-6 16-8v-28l-24-10c-6-2-8-8-4-14 2-4 6-6 10-6 2 0 4 0 4 2l16 8v-10l-30-16c-6-2-6-8-4-14 2-4 6-6 8-6 2 0 4 0 4 2l20 10v-8c0-6 4-10 10-10 6 0 10 4 10 10v12l20-12c4-2 10 0 14 4 2 4 2 10-4 14l-30 18v6l16-8c4-2 10 0 14 4 2 6 0 12-4 14l-24 12v28c6 2 12 4 16 8l24-14-2-26c0-6 4-10 10-10h0c6 0 10 4 10 10l2 16 6-4-2-32c0-6 4-10 10-10h0c6 0 10 4 10 10l0 22 10-6c2 0 4-2 4-2 4 0 8 2 8 6 2 4 2 10-4 14l-12 4z m-252-122l-14-8-2 2 6 4c2 2 2 4 2 6-2 2-4 2-6 2l-12-8-10 6c0 2 0 2 0 4 0 2 0 2 0 4l10 6 10-6c0 0 2 0 2 0 2 0 2 0 4 2 2 2 0 4-2 6l-6 4 4 2 12-8c0 0 2 0 2 0 2 0 4 0 4 2 2 2 0 6-2 6l-8 6 4 2c2 2 2 4 2 6-2 2-4 2-6 2l-4-2 0 10c0 2-2 4-4 4-2 0-4-2-4-4l0-16-2-2 0 8c0 2-2 4-6 4-2 0-4-2-4-4l0-12-10-6c-2 2-4 4-8 4v10l12 6c2 2 4 4 2 6-2 2-4 4-6 2l-8-4v4l14 8c2 2 4 4 2 6-2 2-4 4-6 2l-10-4v4c0 2-2 4-4 4-2 0-4-2-4-4v-6l-10 6c-2 2-4 0-6-2-2-2 0-6 2-6l14-8v-2l-8 4c-2 2-6 0-6-2-2-2 0-6 2-6l12-6v-12c-2 0-6-2-8-4l-10 6 0 12c0 2-2 4-4 4-2 0-4-2-4-4l0-8-4 2 0 16c0 2-2 4-4 4-2 0-4-2-4-4l0-10-4 2c-2 2-4 0-6-2-2-2 0-6 2-6l4-2-10-6c-2-2-2-4-2-6 0-2 2-2 4-2 0 0 2 0 2 0l14 8 2-2-6-4c-2-2-2-4-2-6 0-2 2-2 4-2 0 0 2 0 2 0l10 6 10-6c0-2 0-2 0-4 0-2 0-2 0-4l-10-6-10 6c-2 2-4 0-6-2-2-2 0-6 2-6l6-4-2-2-12 8c-2 2-6 0-6-2-2-2 0-6 2-6l8-6-4-2c-2-2-2-4-2-6 0-2 2-2 4-2 0 0 2 0 2 0l4 2 0-10c0-2 2-4 4-4 2 0 4 2 4 4l0 16 2 2 0-8c0-2 2-4 4-4h0c2 0 4 2 4 6l0 12 10 6c2-2 4-4 6-4v-12l-12-6c-2-2-4-4-2-6 0-2 2-2 4-2 0 0 2 0 2 0l8 4v-4l-14-6c-2-2-4-4-2-6 0-2 2-2 4-2 0 0 2 0 2 0l10 4v-4c0-2 2-4 4-4 2 0 4 2 4 4v4l8-6c2-2 6 0 6 2 2 2 0 6-2 6l-14 8v2l8-4c2-2 6 0 6 2 2 2 0 6-2 6l-12 6v12c2 0 6 2 8 4l10-6 0-12c0-2 2-4 4-6h0c2 0 4 2 4 4l0 8 4-2 0-16c0-2 2-4 4-4h0c2 0 4 2 4 4l0 10 4-2c0 0 2 0 2 0 2 0 4 0 4 2 2 2 0 6-2 6l-4 2 10 6c2 2 2 4 2 6 6 6 2 6 0 6m404 554l0 0c-18 114-118 202-236 202-82 0-158-42-202-110-26 6-52 8-78 6-112-10-202-100-214-212-14-144 98-264 238-264h2c22 0 38 18 38 38v2c0 20-16 36-36 36h0c-86 0-162 70-164 154-4 92 70 166 160 166 20 0 40-4 60-12 20-8 42 2 50 20 26 58 84 96 146 96 88 0 160-72 160-160l0-2c0-2 0-4 0-4 0-18 10-34 28-38 8-2 14-2 22 0 8 2 18 4 26 4 66 0 118-56 112-122-6-58-56-102-114-102h-48c-22 0-38-18-38-38v0c0-22 18-38 38-38h46c102 0 190 80 194 182 4 108-84 198-190 196z" horiz-adv-x="1000" />

<glyph glyph-name="temp-frigid-center" unicode="&#xe81f;" d="M976 388c-4-106-94-190-200-190h-46c-22 0-40 18-40 40v0c0 22 18 40 40 40h48c60 0 112 44 118 104 6 68-48 126-116 126-8 0-18-2-28-4-8-2-16-2-22 0-18 6-30 22-30 40 0 2 0 4 0 6l0 2c0 92-74 166-166 166-66 0-124-38-152-98-8-20-32-30-52-22-20 8-40 12-62 12-94 0-168-78-166-172 4-88 82-160 170-160h0c20 0 38-16 38-38v-2c0-22-18-40-40-40h-2c-144 0-260 124-244 272 14 116 108 208 222 220 28 2 54 0 80-6 44 70 122 114 208 114 122 0 224-90 244-208l0 0c112 2 202-90 198-202z m-304-270c0 40-32 74-72 76-2 0-4 0-6 0-14 0-26-12-26-26 0-14 12-26 26-26s26-12 26-26c0-14-12-26-26-26h-38c-14 0-26-12-26-26s12-26 26-26h38l0 0c44 2 78 36 78 80z m-128 50c0 40-32 74-72 76-2 0-4 0-6 0-14 0-26-12-26-26 0-14 12-26 26-26 14 0 26-12 26-26 0-14-12-26-26-26h-26-90-164l0 0c-2 0-4 0-6 0-40-2-72-36-72-76 0-42 34-76 76-76h26 52 38 52 38 52 26c14 0 26-12 26-26 0-14-12-26-26-26-14 0-26-12-26-26 0-14 12-26 26-26 2 0 4 0 6 0 40 2 72 36 72 76 0 42-34 76-76 76h-26-52-38-52-38-52-26c-14 0-26 12-26 26s12 26 26 26h166 90 26c42 4 76 38 76 80z" horiz-adv-x="1000" />

<glyph glyph-name="temp-mild-center" unicode="&#xe820;" d="M588-46c4-20-14-46-40-52-26-4-48 8-54 34-8 38 18 68 28 132 28-60 62-78 66-114m34 258c-12-74-40-108-32-150 6-28 32-44 60-38 30 6 50 36 46 58-6 42-44 62-74 130m-172-4c-8-46-26-68-20-94 4-18 20-28 38-24 18 4 32 22 30 38-4 24-30 36-48 80m360 178l0 0c-16 102-106 182-214 182-74 0-144-38-182-100-24 6-46 8-70 4-102-10-184-90-194-192-12-130 88-238 214-238h2c20 0 36 16 36 36v2c0 18-14 32-32 32h0c-78 0-146 62-148 140-2 82 64 150 146 150 18 0 36-4 54-10 18-6 38 2 44 18 24 52 76 86 132 86 80 0 146-66 146-144l0-2c0-2 0-2 0-4 0-16 10-30 26-34 6-2 14-2 20 0 8 2 16 2 24 2 60 0 106-50 102-112-4-52-52-92-104-92h-42c-20 0-36-16-36-36v0c0-20 16-36 36-36h40c94 0 172 72 176 166 0 100-78 182-176 182z m-766 90h52c14 0 26 12 26 26 0 14-12 26-26 26h-52c-14 0-26-12-26-26 0-14 12-26 26-26z m104 178c10-10 28-10 38 0 10 10 10 28 0 38l-38 36c-10 10-28 10-38 0-10-10-10-26 0-38l38-36z m188 62c14 0 26 12 26 26v52c0 14-12 26-26 26s-28-10-28-26v-52c0-14 12-26 28-26z m186-62l38 36c10 10 10 28 0 38-10 10-28 10-38 0l-36-38c-10-10-10-28 0-38 10-8 26-8 36 2z m-312-198c-6 16-10 32-10 50 0 72 60 132 132 132 54 0 100-32 120-78 2 2 4 2 6 2 12 8 26 16 40 22-30 64-94 106-166 106-102 0-184-82-184-184 0-34 10-66 26-92 10 16 22 30 36 42z" horiz-adv-x="1000" />

<glyph glyph-name="tech-durability" unicode="&#xe821;" d="M500 802a452 452 0 1 0-451-452 452 452 0 0 0 451 452m0 48a500 500 0 1 1 500-500 500 500 0 0 1-500 500z m260-341a10 10 0 0 1-9 10 540 540 0 0 0-130 23 495 495 0 0 0-115 59 16 16 0 0 1-18 0 553 553 0 0 0-104-56c-41-16-106-23-135-25a16 16 0 0 1-16-16c0-40 2-152 44-251 58-136 177-202 210-219a19 19 0 0 1 17 0 482 482 0 0 1 190 194 569 569 0 0 1 66 281z m-99-270c-49-84-123-135-152-152a8 8 0 0 0-12 6l1 457a8 8 0 0 0 13 7c21-14 61-40 94-51a312 312 0 0 1 99-16 11 11 0 0 0 11-11c-1-38-7-159-54-240z" horiz-adv-x="1000" />

<glyph glyph-name="tech-lightweight" unicode="&#xe822;" d="M906 642c23 64 32 120 28 151-8 66-72 5-72 5l-64-46a501 501 0 1 1 108-110z m-406-744a452 452 0 1 0 256 823l-270-193a63 63 0 0 1-19-16c-5-8-39-85-49-108a2 2 0 0 0-3 0l-1 65a4 4 0 0 1-7 3l-45-33a33 33 0 0 1-11-15l-25-61a2 2 0 0 0-3 0l-5 41a3 3 0 0 1-4 2l-29-20a27 27 0 0 1-12-27 29 29 0 0 0 0-15c-5-11-14-33-14-33a827 827 0 0 1 237 80c87 46 172 109 211 140a2 2 0 0 0 3-3 879 879 0 0 0-288-195 1042 1042 0 0 0-305-72 3 3 0 0 1-2-5l30-28a15 15 0 0 1 13-4l89 19s47 10 66-8l13-13a21 21 0 0 1 16-6c19 1 63 3 68 5s-4 24-8 34a2 2 0 0 0 3 2l54-16a43 43 0 0 1 23 0c43 10 199 55 294 171a778 778 0 0 1 108 176 451 451 0 0 0-384-690z m177 154c0-13-84-24-188-24s-188 11-188 24 84 23 188 23 188-10 188-23z" horiz-adv-x="1000" />

<glyph glyph-name="glacialgrip_final" unicode="&#xe823;" d="M698 373l-77-99-294 426-206-556-109-139h974l-288 368z m-484-193l115 347 18-312-133-35z m500 81l181-210h-84l-97 210z" horiz-adv-x="1000" />

<glyph glyph-name="filter" unicode="&#xe824;" d="M225 557h23c8-15 19-29 34-39 15-10 34-16 53-16s37 6 53 16c14 10 26 24 33 39h354c22 0 40 18 40 41 0 22-18 40-40 40h-354c-7 16-18 29-33 39-16 10-34 16-53 16s-37-6-53-16c-15-10-26-23-33-39h-24c-22 0-40-18-40-40-1-23 18-41 40-41z m85 41c0 13 11 24 25 24s25-11 25-24c0-14-12-25-25-25s-25 11-25 25z m465-208h-23c-8 16-19 29-34 39-15 11-34 16-53 16-19 0-37-5-53-16-14-10-26-23-33-39h-354c-22 0-41-18-41-40s19-40 41-40h354c7-16 18-29 33-39 16-11 34-16 53-16 19 0 37 5 53 16 15 10 26 23 33 39h24c22 0 40 18 40 40s-18 40-40 40z m-110-65c-13 0-25 11-25 25 0 14 12 25 25 25s25-11 25-25c0-14-11-25-25-25z m110-182h-230c-7 15-19 29-33 39-16 10-34 16-53 16-19 0-38-6-53-16-15-10-26-24-34-39h-147c-22 0-40-18-40-41s18-40 40-40h147c8-16 19-29 34-39 15-10 34-16 53-16 19 0 37 6 53 16 14 10 26 23 33 39h230c22 0 41 18 41 40s-19 41-41 41z m-316-65c-14 0-25 11-25 24 0 14 11 25 25 25s25-11 25-25c0-13-12-24-25-24z" horiz-adv-x="1000" />

<glyph glyph-name="facebook" unicode="&#xe825;" d="M812 760h-624c-54 0-98-44-98-98v-624c0-54 44-98 98-98h339v316h-105v126h105v98c0 91 75 166 167 166h89v-131h-89c-20 0-36-16-36-35v-98h125l-19-126h-106v-316h154c54 0 97 44 97 98v624c1 54-43 98-97 98z" horiz-adv-x="1000" />

<glyph glyph-name="tech-h2ogrip" unicode="&#xe826;" d="M495 424c-10-29-24-65-39-92-13-24-32-59-41-84 0-1 0-1 0-1-5-10-7-21-7-33 0-45 39-82 87-82s87 37 87 82c0 3 0 6-1 9 0 0 0 0 0 1 0 0 0 0 0 0 0 1 0 1 0 1 0 1 0 3-1 5-1 6-3 12-6 18 0 0 0 0 0 1-8 22-23 53-40 83-15 27-29 63-39 92m-1-318c-62 0-113 49-113 109 0 14 3 28 8 42 11 26 29 62 43 87 19 34 38 90 45 113 2 5 3 9 5 14 2 5 7 9 12 9h0c6 0 11-4 13-9 2-4 3-8 4-13 8-22 27-79 46-114 17-30 33-63 42-86 3-7 6-15 7-23 1-2 1-4 1-6 1-2 1-3 1-5 0-3 0-6 0-9 1-60-51-109-114-109m440 107c-2-1-4-1-6-1 2 0 4 0 6 1m-105 211c-11-29-25-65-39-92-14-24-32-59-42-84 0-1 0-1 0-1-4-10-7-21-7-33 0-45 39-82 87-82 48 0 87 37 87 82 0 3 0 6 0 9 0 0 0 0 0 1 0 0 0 0 0 0 0 1 0 1 0 1 0 1-1 3-1 5-1 6-3 12-6 18 0 0 0 0 0 1-9 22-24 53-40 83-15 27-29 63-39 92m-1-318c-62 0-114 49-114 109 0 14 3 28 9 42 10 26 29 62 43 87 19 34 38 90 45 113 1 5 3 9 5 14 1 5 7 9 12 9h0c6 0 11-4 13-9 1-4 3-8 4-13 8-22 27-79 46-114 17-31 32-63 41-86 4-7 6-15 8-23 0-2 1-4 1-6 0-1 0-2 0-3 0-1 0-1 0-1 1-4 1-7 1-11 0-59-51-108-114-108m-562 107c-2-1-4-1-5-1 2 0 3 0 5 1m-105 212c-10-29-24-66-38-92-14-25-32-60-42-85 0 0 0-1 0-1-5-10-7-21-7-32 0-46 39-83 87-83 48 0 87 37 87 83 0 2 0 5 0 8 0 0 0 1 0 1 0 0 0 0 0 1 0 0 0 0 0 0-1 2-1 3-1 5-2 6-4 12-6 18-1 0-1 1-1 1-8 22-23 53-40 84-15 26-29 64-39 92m0-319c-63 0-114 49-114 109 0 14 3 28 9 42 10 26 29 62 43 87 18 34 37 90 45 113 1 5 3 9 4 14 2 5 7 9 13 9h0c6 0 11-4 13-9 1-4 2-8 4-13 7-22 27-79 46-114 17-31 32-63 41-86 4-7 6-15 8-23 0-2 0-4 1-6 0-1 0-2 0-3 0 0 0-1 0-1v0c0-3 1-7 1-10 0-60-51-109-114-109m145 187l-60 103 162-1-59-102h-43z m334 0l-59 103 162-1-59-102h-44z m-282-151l71-102-183-1 60 103h52z m326 0l59-102-183-1 71 103h53z" horiz-adv-x="1000" />

<glyph glyph-name="impact-certificate" unicode="&#xe827;" d="M883 453l-41 67 12 79-64 47-19 77-77 19-47 64-79-12-67 41-68-41-79 12-47-64-77-19-19-77-64-47 12-78-41-68 41-68-12-79 64-47 19-77 59-14 0-304 211 71 212-71 0 304 59 14 19 77 64 47-12 79 41 68z m-194-556l-177 58 0 44-11 0-12 0 0-44-177-59 0 261 42-58 79 12 68-41 68 41 78-12 42 58 0-260z m85 380l-4-5-18-71-52-12 0 0 0 0-14-4-7-3-42-58-67 11-3 0-4 0-62-38-59 36-8 2-69-11-41 55-4 4-17 5-2 1-4 0 0 0-48 12-16 66-1 4-60 45 11 68 0 2-1 5-37 61 35 58 2 3 1 6-11 70 55 40 4 4 18 71 66 16 6 2 44 59 67-11 2 0 2 0 65 38 58-35 1-1 7-2 70 11 40-55 2-3 73-19 16-66 2-6 59-43-11-68 0-2 1-5 37-61-36-59-1-2-1-6 11-69-55-40z m-5 207l-3 20-4 19-6 20-8 18-5 12-11 20-9 14-14 18-13 14-9 9-15 13-18 14-22 14-11 6-22 9-22 8-19 5-20 3-24 3-17 0-11 0-17-2-20-3-20-4-19-6-18-7-12-6-20-11-19-13-18-14-14-13-17-19-14-18-14-23-6-11-9-21-6-16-5-19-4-20-3-20-1-21 0-17 2-24 3-14 5-23 5-15 7-19 6-12 11-20 9-13 14-19 13-14 16-16 15-12 19-13 19-12 18-8 19-8 12-4 20-5 20-3 24-3 10 0 18 0 17 2 20 3 19 4 19 6 19 8 12 5 20 11 13 9 19 14 14 13 16 16 12 15 12 16 13 22 9 18 7 19 7 25 5 20 2 20 1 21 0 17-2 18z m-22-54l-1-12-4-18-5-21-10-25-7-17-11-18-16-21-13-16-15-14-14-12-10-7-20-13-16-8-22-9-12-4-18-4-18-3-22-2-16-1-19 1-18 3-18 3-24 7-17 7-11 5-18 10-10 6-16 13-20 18-16 17-13 17-13 20-5 11-9 19-6 17-4 15-2 12-4 21 0 10-1 19 1 19 3 18 3 18 5 18 9 23 8 16 10 18 16 22 14 15 15 15 13 11 10 7 20 13 16 8 23 9 11 4 18 5 18 3 22 2 16 0 19-1 19-2 18-4 23-7 17-7 11-5 18-10 10-6 17-13 16-13 14-15 11-14 7-10 13-20 8-16 9-22 4-12 5-18 3-18 2-22 0-16-1-19z m-125 90l-57 10-27 51c-4 8-10 14-18 18-20 11-46 3-57-18l-27-51-57-10c-8-1-16-5-22-11-17-17-17-44-1-60l40-42-8-57c-1-9 0-17 4-25 5-10 14-18 24-21 5-2 9-3 14-3 6 0 13 2 18 5l52 25 52-25c8-4 17-5 25-4 11 1 21 7 28 16 7 9 10 21 8 32l-8 57 40 42c6 6 10 14 11 22 5 23-11 45-34 49z m12-45c-1-4-3-7-5-10l-49-50 10-68c1-5-1-10-4-14-3-5-7-7-12-8-4 0-8 0-11 2l-62 30-63-30h0c-4-2-9-3-14-1-5 1-9 5-11 9-2 4-3 8-2 12l10 68-49 50c-7 7-7 20 1 27 3 3 6 4 10 5l68 12 33 61c3 7 10 10 17 10 3 0 6 0 8-2 4-2 7-4 8-8l33-61 68-12c11-2 17-12 16-22z" horiz-adv-x="1000" />

<glyph glyph-name="link-arrow" unicode="&#xe828;" d="M290 760h194l227-410-227-410h-194l227 410-227 410z" horiz-adv-x="1000" />

<glyph glyph-name="search" unicode="&#xe829;" d="M864 613c-42 69-109 118-187 138-24 6-49 9-73 9-140 0-261-95-295-232-19-78-5-156 31-221l-228-231c-30-30-29-79 1-109 15-15 35-23 54-23 20 0 40 8 55 23l226 228c26-15 53-27 84-34 23-6 48-9 72-9 140 0 261 95 295 231 19 79 7 161-35 230z m-55-208c-24-94-108-160-205-160-17 0-34 2-50 6-113 28-182 142-154 255 23 95 107 161 204 161 17 0 34-2 51-7 54-13 100-47 129-95 29-48 38-105 25-160z" horiz-adv-x="1000" />

<glyph glyph-name="cart" unicode="&#xe82a;" d="M908 559l-74-409h-537l-40 225 0 0-52 283h-117v55h163l28-154h629z m-486-457c-31 0-56-24-56-55 0-31 25-56 56-56 30 0 55 25 55 56 0 31-25 55-55 55z m279 0c-31 0-56-24-56-55 0-31 25-56 56-56 31 0 55 25 55 56 0 31-24 55-55 55z" horiz-adv-x="1000" />

<glyph glyph-name="mobile-menu" unicode="&#xe82b;" d="M852 561h-704c-29 0-52 24-52 53s23 53 52 53h704c29 0 53-24 53-53s-24-53-53-53z m53-211c0 29-24 53-53 53h-704c-29 0-52-24-52-53 0-29 23-53 52-53h704c29 0 53 24 53 53z m0-264c0 29-24 53-53 53h-704c-29 0-52-24-52-53 0-29 23-52 52-52h704c29 0 53 23 53 52z" horiz-adv-x="1000" />

<glyph glyph-name="video-play" unicode="&#xe82c;" d="M500 756c-224 0-406-182-406-406s182-406 406-406 406 182 406 406-182 406-406 406z m-96-562v312l270-156-270-156z" horiz-adv-x="1000" />

<glyph glyph-name="star-half" unicode="&#xe82d;" d="M871 482c12-1 22-7 30-17s12-22 12-34-6-23-16-32l-163-159 38-225c4-15 0-28-10-40-11-11-23-17-37-17-8 0-16 2-23 6l-202 105-202-105c-7-4-14-6-23-6-14 0-26 6-37 17-10 12-13 25-10 40l38 225-163 159c-10 9-15 20-15 32s3 23 11 34 18 16 30 18l226 33 100 203c6 9 12 16 20 20s16 7 25 7 18-2 25-7 15-11 20-20l100-203 226-34z m-188-190l126 125-214 31-95 194v-488l191-102-36 214 28 26z" horiz-adv-x="1000" />

<glyph glyph-name="star-full" unicode="&#xe82e;" d="M455 719c7 12 16 20 27 24 12 4 24 4 36 0 12-4 21-12 27-24l100-203 224-33c14-2 24-8 32-18s11-22 11-34-6-23-15-32l-163-159 38-225c3-12 0-24-6-34s-17-18-29-21-24-2-35 4l-202 105-202-105c-11-6-23-7-35-4s-22 10-28 21-9 22-7 34l38 225-163 159c-9 9-14 20-15 32s3 23 11 34 18 16 32 18l224 33 100 203z" horiz-adv-x="1000" />

<glyph glyph-name="star-empty" unicode="&#xe82f;" d="M869 483c14-2 24-8 32-18s11-22 11-34-6-23-15-32l-163-159 38-225c3-12 0-24-6-34s-17-18-29-21-24-2-35 4l-202 105-202-105c-11-6-23-7-35-4s-22 10-28 21-9 22-7 34l38 225-163 159c-9 9-14 20-15 32s3 23 11 34 18 16 32 18l224 33 100 203c7 12 16 20 27 24 12 4 24 4 36 0 12-4 21-12 27-24l100-203 224-33z m-214-217l154 151-214 31-95 194-95-194-214-31 154-151-36-214 191 102 191-102-36 214z" horiz-adv-x="1000" />

<glyph glyph-name="sort" unicode="&#xe830;" d="M816 350c0-22-19-40-41-40h-413c-22 0-40 18-40 40s18 40 40 40h413c22 0 41-18 41-40z m0 248c0 22-19 40-41 40h-550c-22 0-41-18-41-40s19-41 41-41h550c22 0 41 18 41 41z m-41-455h-275c-22 0-40-18-40-41s18-40 40-40h275c22 0 41 18 41 40s-19 41-41 41z" horiz-adv-x="1000" />

<glyph glyph-name="impact-yulex" unicode="&#xe831;" d="M906 408c0 34-11 68-32 95 0 3 1 7 1 10 0 39-19 77-50 102-5 44-43 78-90 78-28 0-54-13-70-33-1 1-1 1-2 1-4 53-50 95-106 95-33 0-62-14-81-36-5 65-60 115-128 115-68 0-124-51-128-115-48-37-76-94-76-153 0-6 0-12 1-18-32-42-50-93-50-145 0-116 84-212 197-237v-86h-66-21v-21c0-44 35-79 79-79 3 0 5 0 8 0v-82c0-10 4-35 39-35 2 0 3 0 5 0 2 0 4 1 6 1 2 0 4-1 6-1 2 0 5 0 7 0 34 0 37 25 37 35v266c41 7 79 23 111 47 1-1 3-1 4-1v-62h-57-21v-21c0-38 31-68 68-68 3 0 7 0 10 0v-57c0-9 3-37 45-37 40 0 44 26 44 37v206c34 6 66 21 92 41 1 0 2-1 3-1v-42h-42-21v-21c0-33 26-59 58-59 2 0 4 0 5 0v-43c0-12 6-32 40-32 33 0 40 18 40 32v163c77 16 135 82 135 161z m-349 327c47 0 85-36 85-82 0-1 0-2 0-3 38-25 62-67 62-114 0-7-1-13-1-20 25-30 41-69 41-111 0-99-84-179-187-179-12 0-23 1-33 3 48 44 77 106 77 175 0 52-17 103-50 145 1 6 1 12 1 18 0 52-22 103-61 139 16 18 39 29 66 29z m-441-331c0 52 19 100 51 138-1 8-2 16-2 25 0 58 30 110 77 142 0 1 0 2 0 3 0 56 47 102 106 102 59 0 107-46 107-102 0-1 0-2 0-3 46-32 76-84 76-142 0-9-1-17-2-25 32-38 51-86 51-138 0-123-104-222-232-222-128 0-232 99-232 222z m110-344h116c0-32-26-58-58-58-32 0-58 26-58 58z m145-161c0-12-7-13-16-13-4 0-9 0-13 0-4 0-8 0-11 0-11 0-18 1-18 13v87c30 12 50 40 50 74v21h-21-29v82c12-1 23-2 35-2 8 0 15 0 23 1v-263z m79 229h94c0-26-21-47-47-47-26 0-47 21-47 47z m125-125c0-13-10-16-23-16-13 0-24 3-24 16v64c22 12 37 34 37 61v21h-21-16v58c9-1 19-2 28-2 7 0 13 0 19 1v-203z m74 183h75c0-21-17-38-38-38-20 0-37 17-37 38z m101-102c0-10-8-10-19-10-10 0-18 0-18 10v50c19 9 32 29 32 52v21h-21-11v38c7-1 15-1 22-1 5 0 10 0 15 0v-160z m-15 181c-9 0-18 1-28 2 36 36 58 84 58 138 0 42-15 84-40 118 0 4 0 9 0 13 0 41-16 80-45 110 13 16 33 26 55 26 38 0 69-29 69-65 0-1 0-2 0-3 30-20 49-54 49-91 0-6 0-11-1-16 21-25 33-56 33-89 0-79-67-143-150-143z" horiz-adv-x="1000" />

<glyph glyph-name="x" unicode="&#xe832;" d="M583 350l182-182-102-102-182 182-182-182-102 102 182 182-182 182 102 102 182-182 182 182 102-102-182-182z" horiz-adv-x="1000" />

<glyph glyph-name="instagram" unicode="&#xe833;" d="M684 760h-368c-125 0-226-101-226-226v-368c0-125 101-226 226-226h368c124 0 226 102 226 226v368c0 125-101 226-226 226z m153-594c0-84-69-153-153-153h-368c-84 0-153 68-153 153v368c0 84 68 153 153 153h368c84 0 153-68 153-153l0-368 0 0z m-337 395c-117 0-211-95-211-211s94-211 211-211 211 94 211 211-94 211-211 211z m0-350c-76 0-139 63-139 139s63 139 139 139 139-63 139-139-63-139-139-139z m220 412c-14 0-28-6-37-16-10-9-16-23-16-37 0-14 6-28 16-38 9-10 23-16 37-16s28 6 38 16c10 10 16 24 16 38s-6 27-16 37c-10 10-24 16-38 16z" horiz-adv-x="1000" />

<glyph glyph-name="twitter" unicode="&#xe834;" d="M899 597c-30-13-61-22-94-26 33 21 59 53 72 91-32-19-67-32-104-40-30 32-73 52-120 52-90 0-163-73-163-164 0-12 1-25 4-37-136 7-256 72-337 171-14-24-22-52-22-82 0-57 28-107 72-136-26 1-52 8-74 20 0 0 0-1 0-2 0-79 57-145 132-160-14-4-29-6-43-6-11 0-21 1-31 3 21-65 81-112 153-114-56-43-127-70-204-70-13 0-26 1-39 3 73-47 159-74 251-74 301 0 465 249 465 465 0 7 0 15 0 22 32 23 60 51 82 84z" horiz-adv-x="1000" />

<glyph glyph-name="youtube" unicode="&#xe835;" d="M802 623c-102 6-204 9-304 9s-201-3-300-9c-52-4-90-43-96-98-13-115-13-233 0-350 6-56 44-95 96-98 115-6 223-9 323-9 100 0 194 3 281 9 52 4 91 43 96 98 13 121 13 239 0 350-6 55-45 94-96 98z m-388-386v233l223-117-223-116z" horiz-adv-x="1000" />

<glyph glyph-name="pinterest" unicode="&#xe836;" d="M865 715c-30 30-66 45-109 45l0 0h-512c-43 0-79-15-109-45-30-30-45-66-45-109v-512c0-43 15-79 45-109 30-30 66-45 109-45h98c-6 55-5 100 3 136l53 221c-9 17-13 39-13 64 0 30 8 55 23 75 15 20 33 30 55 30 17 0 31-6 40-18 10-11 14-26 14-43 0-11-2-24-5-40-4-15-10-34-16-54-7-21-11-38-14-50-5-21-1-40 12-55 13-15 30-23 52-23 37 0 68 21 92 63s36 93 36 152c0 46-15 84-44 113-30 28-71 43-125 43-59 0-107-19-144-57-37-38-55-84-55-137 0-31 9-58 26-80 6-7 8-14 6-22-2-6-4-17-8-33-1-5-4-8-8-10s-8-2-12 0c-28 11-48 31-62 59-14 27-21 59-21 96 0 23 3 47 11 70 8 24 19 47 36 69 16 22 35 41 57 58 22 17 49 31 82 41s66 15 103 15c38 0 73-6 106-19 32-13 59-30 81-52 22-22 39-46 52-74 12-28 18-57 18-87 0-80-20-147-61-199-41-53-93-79-158-79-21 0-41 5-60 15-18 10-32 22-39 36-16-63-25-100-28-112-8-31-28-69-58-112h387c43 0 79 15 109 45 30 30 45 66 45 109v512c0 43-15 79-45 109z" horiz-adv-x="1000" />

<glyph glyph-name="paypal" unicode="&#xe837;" d="M773 327c-3-2-6-4-10-5-4-2-9-3-13-3-6 0-11 1-14 3-3 1-5 4-5 9 0 5 2 9 4 12 2 3 6 5 11 7 4 2 10 3 16 4 6 1 17 2 18 2 2 0 3 1 2-3 0-2-4-15-5-21-1-2-3-5-4-5z m44 93c-10 5-24 8-44 8-10 0-20-1-30-3-8-1-9-1-13-2-10-2-11-11-11-11l-3-13c-2-8 3-7 5-7 4 1 6 3 15 5 8 1 16 3 23 3 10 0 17-1 22-3 5-3 8-6 8-12 0-1 0-2-1-3 0-1-1-2-3-2-14-1-25-3-37-4-12-2-22-5-31-9-10-4-17-10-22-17-4-7-7-16-7-26 0-9 4-17 10-23 7-6 16-9 27-9 6 0 11 1 15 1 4 1 8 3 12 4 3 2 7 4 10 6 4 2 7 4 10 6l0 0-1-4c0 0 0 0 0 0l0 0c-1-5 2-9 7-9l0 0h0l0 0c3 0 14 0 19 0h4c0 0 0 0 0 0 5 1 10 5 11 9l18 79c0 1 1 4 1 6 0 2 0 4 0 6 0 10-5 18-14 24m-312 6c-5 0-12-4-15-9 0 0-36-61-39-67-2-4-4-2-4 0-1 1-11 66-11 66-2 5-7 10-14 10l-22 0c-6 0-9-4-8-9 0 0 17-96 21-119 1-12-1-15-1-15l-22-38c-3-5-1-9 4-9l26 0c5 0 12 4 15 9l99 167c0 0 10 14 1 14-6 0-30 0-30 0m-258 16c-3 6-7 10-13 14-7 4-14 7-22 8-8 2-18 2-29 3l-52 0c-5 0-11-5-12-10l-35-151c-1-6 3-10 8-10h25c5 0 10 4 11 10l9 36c1 6 6 10 12 10h7c30 0 54 6 71 18 16 13 25 29 25 50 0 8-2 16-5 22m-53-50c-8-5-18-8-32-8h-6c-5 0-8 4-7 9l7 32c1 6 7 10 12 10l8 0c10 0 17-2 22-5 5-3 7-8 7-15 0-10-4-18-11-23m503 49c-3 6-8 11-13 15-6 3-14 6-22 8-8 1-18 2-29 2l-52 0c-5 0-11-4-12-10l-35-151c-1-6 3-10 8-10l25 0c5 0 10 4 12 10l8 36c1 6 7 10 12 10h7c30 0 54 6 71 18 17 13 25 29 25 50 0 9-2 16-5 22m-53-50c-8-5-18-8-31-8h-7c-5 0-8 4-7 10l7 32c1 5 7 9 12 9l8 0c10 0 17-1 22-5 5-3 7-8 7-14 0-10-4-18-11-24m-321-64c-3-2-7-4-10-5-5-2-9-3-13-3-6 0-11 1-14 3-3 2-5 5-5 9 0 5 1 9 4 12 2 3 6 6 10 7 5 2 10 3 17 4 5 1 17 2 18 2 1 0 2 1 2-3 0-2-4-15-5-21-1-2-3-5-4-5z m44 93c-10 5-25 8-45 8-10 0-20-1-30-3-7-1-8-1-12-2-10-2-11-11-11-11l-3-13c-2-8 3-7 5-7 4 1 6 3 14 5 8 1 17 3 24 3 10 0 17-1 22-3 5-3 7-6 7-12 0-1 0-2 0-3 0-1-1-2-4-2-14-1-24-3-36-4-12-2-23-5-32-9-9-4-16-10-21-17-5-7-7-16-7-26 0-9 3-17 10-23 7-6 16-9 26-9 7 0 12 1 16 1 3 1 8 3 12 4 3 2 6 4 10 6 4 2 6 4 9 6l0 0-1-4c0 0 0 0 0 0l0 0c-1-5 2-9 7-9l0 0h0l0 0c4 0 14 0 19 0h4c0 0 0 0 0 0 5 0 10 4 11 9l18 78c1 2 1 4 1 7 0 2 1 4 1 6 0 10-5 19-14 24m535 45h-22c0 0 0 0 0 0l0 0c-5 0-10-4-11-9 0 0-1-1-1-1 0 0 0-2-1-6l-30-138c-1-4-2-6-2-6l0 0c-1-5 2-9 7-9l0 0h23c5 0 10 4 11 9 0 0 1 0 1 0l33 151 0 0c1 4-2 9-8 9" horiz-adv-x="1000" />

<glyph glyph-name="amazon" unicode="&#xe838;" d="M437 331c3-4-1-33-17-46-3-2-5-1-4 2 3 9 12 29 8 34-4 5-26 3-36 2-3-1-3 2-1 4 18 12 46 8 50 4z m-30-17c-34-14-71-21-105-21-50 0-99 13-138 36-3 2-6-1-3-4 36-33 84-52 138-52 38 0 82 12 112 34 5 4 1 9-4 7z m-244 36c-4-3-10-8-13-11l0 0c-1-1-2-1-4 0-5 4-6 6-9 10-9-9-15-11-27-11-13 0-24 8-24 25 0 13 7 22 17 26 9 4 21 5 31 6v2c0 4 0 9-2 12-2 3-6 4-9 4-7 0-12-3-13-10-1-1-2-3-3-3l-16 2c-1 1-3 2-2 4 3 18 20 24 35 24h1c8 0 18-2 24-8 8-7 7-17 7-28v-25c0-7 4-11 7-15 1-1 1-3 0-4z m-29 29v3c-12 0-24-3-24-16 0-7 3-12 9-12 5 0 9 3 12 7 3 6 3 11 3 18z m212 18c0 4 1 9-2 12-2 3-5 4-9 4-6 0-11-3-13-10 0-1-1-3-3-3l-15 2c-2 1-3 2-3 4 4 18 21 24 36 24h1c8 0 18-2 24-8 8-7 7-17 7-28v-25c0-7 3-11 6-15 1-1 1-3 0-4-3-3-9-8-12-11l0 0c-1-1-3-1-4 0-5 4-6 6-9 10-9-9-16-11-27-11-14 0-24 8-24 25 0 13 7 22 17 26 9 4 21 5 30 6v2z m0-18v3c-11 0-24-3-24-16 0-7 4-12 10-12 5 0 9 3 11 7 4 6 3 11 3 18z m-168-40h16c2 0 4 1 4 3l0 44c0 10-1 23 11 23 11 0 10-14 10-23l0-44c0-2 1-3 3-3h16c2 0 3 1 3 3v44c0 5 0 12 2 16 1 4 6 7 9 7 5 0 9-2 10-7 1-4 0-12 0-16l0-44c0-2 2-3 3-3h17c1 0 3 1 3 3l0 52c0 9 1 19-4 27-5 6-12 9-19 9-10 0-18-5-22-16-5 11-11 16-21 16-10 0-18-5-22-16h0v11c0 2-2 3-3 3l-15 0c-2 0-4-1-4-3l0-83c0-2 2-3 3-3z m638 66v-61c0-2-1-3-3-3h-8c-2 0-3 1-3 3l-1 6c-4-4-9-6-14-8-9-4-21-5-30 1-7 4-11 13-11 21 0 7 2 13 7 18 6 7 15 10 25 10 7 0 16-1 22-3v11c0 12-4 17-17 17-10 0-18-2-28-5-2 0-3 1-3 3v6c0 2 2 3 3 4 7 3 18 5 29 5 15 1 32-3 32-25z m-16-27c-5 1-15 2-18 2-6 0-12-1-15-5-3-2-4-6-4-10 0-4 2-9 5-11 5-3 11-3 18-1 6 2 11 5 14 8v17z m-66 6c0-25-13-45-37-45-10 0-19 4-26 10v-40c0-2-1-3-3-3h-11c-1 0-3 1-3 3 0 39 0 77 0 116 0 2 2 3 3 3h9c2 0 3-1 3-3l1-6c8 7 18 12 28 12 27-1 36-23 36-47z m-17 1c0 17-5 32-23 32-7 0-16-3-23-8v-48c7-5 15-8 22-8 7 0 12 1 16 5 6 6 8 16 8 27z m191 43h-12c-2 0-3-2-3-3l-24-68-24 68c-1 1-1 3-4 3h-11c-3 0-3-3-2-4l33-84c-1-3-2-8-5-14-2-4-5-7-10-8-3-1-8-1-11 0-2 0-3-1-3-3 0-2 0-4 0-6 0-1 0-3 2-4 4-2 13-2 19-1 13 4 19 22 23 33l34 87c0 1 0 4-2 4z m-377-45c0-26-14-46-37-46-23 0-36 21-36 46 0 26 13 46 36 46 24 1 37-20 37-46z m-24-1c0 7 0 16-2 22-2 6-5 8-11 8-12 0-12-16-12-26 0-10-1-32 12-32 13 0 13 18 13 28z m-60-21c-9 6-20 7-30 7l27 39c3 4 4 6 4 8v10c0 2-1 3-3 3l-53 0c-2 0-3-1-3-3v-12c0-2 1-3 3-3l28 0-32-46c-2-3-2-6-2-8v-12c0-2 2-4 4-3 18 10 40 9 56 0 2-1 4 1 4 3v13c0 1-1 3-3 4z m140 69c-11 0-18-6-22-17h-1v13c0 1-1 2-2 2l-15 0c-2 0-3-1-4-3l0-83c0-2 2-3 3-3h17c1 0 3 1 3 3v45c0 5 0 10 2 16 2 4 6 6 10 6 11 0 10-13 10-22v-45c0-2 1-3 3-3h16c2 0 3 1 3 3v52c0 8 0 19-4 26-5 7-12 10-19 10z" horiz-adv-x="1000" />

<glyph glyph-name="video-play-clean" unicode="&#xe839;" d="M802 319l-549-317h0c-11-6-25-6-36 0-11 6-17 18-17 31v634c0 13 6 25 17 31 11 6 25 6 36 0l549-317h0c11-6 18-18 18-31s-7-24-18-31z" horiz-adv-x="1000" />

<glyph glyph-name="free-shipping" unicode="&#xe83a;" d="M327 400h-229v26h229z m-114-54h190v27h-190z m147 133h-214v-26h214z m94-160h-437v-26h437z m528-145h-52a60 60 0 0 0-117 0h-377a60 60 0 0 0-117 0h-51v69h-134v26h183v-26h-23v-43h26a60 60 0 0 0 116 0h378a60 60 0 0 0 115 0h27v188l-136 157h-526v-10h-26v37h564l150-174h0z m-567 12a37 37 0 1 1-37-37 38 38 0 0 1 37 37z m494 0a37 37 0 1 1-38-37 38 38 0 0 1 38 37z m-157 335v-137h137v26h-112v111z" horiz-adv-x="1000" />

<glyph glyph-name="gift-guide" unicode="&#xe83b;" d="M549 627l0 0c1 0 32-2 67-2 63 0 84 8 95 13 42 23 57 76 33 118-15 27-44 44-75 44-15 0-29-4-42-11-35-20-85-113-94-132-3-6-3-14 0-20 3-6 9-10 16-10z m98 126c7 4 14 6 22 6 16 0 31-9 39-23 12-22 4-49-17-61-3-2-19-8-74-8-11 0-22 0-31 1 22 39 48 77 61 85z m-358-115c10-6 31-13 95-13 35 0 66 2 67 2 7 1 13 5 17 11 3 6 4 14 0 20-10 19-59 112-94 132-14 6-28 10-43 10-31 0-60-17-76-44-23-42-8-95 34-118z m3 97c8 14 23 23 39 23 8 0 15-2 22-6 13-7 39-46 62-86-9 0-20-1-31-1-55 0-71 6-74 8-22 13-30 41-18 62z m238-375h333v-428c0-18-14-32-32-32h-301v460z m380 193v-107c0-27-22-50-50-50h-330v207h330c27 0 49-22 50-50z m-440 50l0-206h-330c-27 0-50 22-50 50v106c0 27 22 50 49 50h331z m-333-243h333v-460h-301c-18 0-32 14-32 32v428z" horiz-adv-x="1000" />

<glyph glyph-name="warm-guide" unicode="&#xe83c;" d="M838 96v-86c0-26-21-47-47-47h-582c-26 0-47 21-47 47v86c0 26 21 47 47 47h583c25-1 46-21 46-47z m-335 474c46 0 83 37 83 83 0 46-37 83-83 83-46 0-83-37-83-83-1-46 37-83 83-83z m285-285c0 127-88 240-210 272-21-16-47-26-75-26-28 0-54 9-74 25-123-33-208-143-208-272v-102h567v103z" horiz-adv-x="1000" />

<glyph glyph-name="check" unicode="&#xe83d;" d="M298 443l-68-69 220-221 491 491-68 69-423-420-152 150z m594-93c0-216-176-393-392-393s-393 177-393 393c0 216 177 392 393 392 36 0 73-5 108-14l76 76c-57 24-118 37-184 37-270 0-491-221-491-491s221-491 491-491 490 221 490 491h-98z" horiz-adv-x="1000" />

<glyph glyph-name="check-x" unicode="&#xe83e;" d="M565 350l160-159-66-66-159 160-159-160-66 66 160 159-160 159 66 66 159-160 159 160 66-66-160-159z m-65 491c271 0 491-220 491-491s-220-491-491-491-491 220-491 491 220 491 491 491m398-491c0 220-178 398-398 398-219 0-398-178-398-398s179-398 398-398c220 0 398 179 398 398" horiz-adv-x="1000" />

<glyph glyph-name="afterpay" unicode="&#xe83f;" d="M441 361c0 90-68 153-151 153-83 0-151-64-151-153 0-88 68-153 151-153 83 0 151 63 151 153z m1-268v70c-41-48-102-78-175-78-152 0-267 117-267 276 0 157 120 277 270 277 71 0 131-30 172-77v67h136v-535h-136z m798 119c-48 0-61 17-61 62v238h88v116h-88v131h-140v-131h-179v33c0 45 17 62 66 62h31v104h-67c-116 0-170-37-170-148v-51h-77v-116h77v-419h140v419h179v-263c0-109 44-156 157-156h72v119h-28z m501 197c-10 69-69 111-138 111-68 0-125-40-139-111h277z m-278-84c10-79 68-124 142-124 59 0 105 27 131 70h143c-33-114-138-186-277-186-167 0-284 113-284 275 0 161 124 278 288 278 165 0 284-118 284-278 0-12-1-24-3-35h-424z m1315 36c0 86-68 153-151 153-83 0-150-64-150-153 0-88 67-153 150-153 83 0 151 66 151 153z m-439 267h136v-69c41 49 102 79 175 79 150 0 267-119 267-276 0-158-119-277-270-277-70 0-127 26-167 71v-283h-141v755z m1069-267c0 90-67 153-150 153-83 0-151-64-151-153 0-88 68-153 151-153 83 0 150 63 150 153z m2-268v70c-41-48-102-78-175-78-152 0-267 117-267 276 0 157 119 277 270 277 71 0 131-30 172-77v67h136v-535h-136z m-1316 483c0 0 34 62 119 62 37 0 60-12 60-12v-137c0 0-51 31-98 25-47-6-77-48-77-104v-317h-141v535h137v-52z m2088 52l-344-753h-145l135 291-228 462h164l134-309 137 309h147z m1098 12l-341 190c-100 56-225-14-225-125v-20c0-17 9-34 25-42l65-36c18-11 42 2 42 23v49c0 24 27 39 49 27l295-164c22-13 22-43 0-55l-295-165c-22-12-49 3-49 28v25c0 112-125 182-225 126l-341-190c-100-56-100-195 0-251l341-190c100-56 225 14 225 125v20c0 17-10 34-25 42l-65 36c-19 11-42-2-42-23v-49c0-24-27-39-49-27l-296 165c-21 12-21 42 0 54l296 165c22 12 49-3 49-27v-26c0-112 125-182 225-126l341 190c100 56 100 196 0 251z" horiz-adv-x="5355" />

<glyph glyph-name="free-shipping-2" unicode="&#xe840;" d="M206 383h194v-36h-194v36z m150 148h-218v-36h218v36z m-33-74h-233v-36h233v36z m128-148h-444v-36h444v36z m462-202c-9-36-40-62-78-62-38 0-70 26-78 62h-274c-9-36-40-62-78-62-38 0-70 26-78 62h-64v96h-137v36h187v-36h-23v-59h37c9 35 40 62 78 62 38 0 70-27 78-62h274c9 35 40 62 78 62 38 0 70-27 78-62h49v260l-138 219h-535v-14h-27v50h574l152-241 0 0 0-311h-75z m-455 18c0 30-24 54-54 54s-53-24-53-54c0-29 24-53 53-53s54 24 54 53z m430 0c0 30-24 54-54 54-29 0-53-24-53-54 0-29 24-53 53-53 30 0 54 24 54 53z m-134 465v-191h140v36h-114v155h-26z" horiz-adv-x="1000" />

<glyph glyph-name="gift-cards" unicode="&#xe841;" d="M946 600c-1 0-2 0-3 0h-62c1 1 3 3 4 4 22 21 39 51 39 88 0 26-8 54-28 77-19 22-50 38-90 38-62 0-129-37-190-81-47-35-89-74-116-109-28 36-69 74-116 109-61 44-129 81-190 81-40 0-71-16-90-38-20-23-27-51-27-77 0-37 17-67 38-88 2-1 3-3 5-4h-63c-12 0-22-10-22-23v-230c0-12 10-22 22-22h20v-416c0-12 10-22 22-22h802c12 0 23 10 23 22v0 416h19c13 0 23 10 23 22v230c0 12-9 21-20 23z m-808 139c11 13 27 23 56 23 41 0 107-31 163-73 39-28 75-61 98-89h-255c-19 10-39 22-53 37-16 15-25 31-25 55 0 16 5 34 16 47z m340-808h-356v393h356v-393z m0 438h-398v185h398v-185z m165 320c57 42 122 73 163 73 29 0 45-10 56-23 11-13 16-31 16-47 0-24-9-40-24-55-15-14-34-26-54-37h-255c24 27 59 61 98 89z m235-758h-355v393h355v-393z m43 438h-398v185h398v-185z" horiz-adv-x="1000" />

<glyph glyph-name="chat" unicode="&#xe842;" d="M957 460c-18 112-76 203-172 272-83 61-181 93-286 93-7 0-14-1-21-1-16-1-33-1-50-4-108-15-200-59-273-131-76-74-118-162-125-262-8-96 19-191 76-268 17-21 35-42 53-61l0 0-4-10c-3-10-7-18-11-26-15-28-38-49-61-71l-8-7c-9-9-19-18-27-27-4-5-17-18-12-36 5-17 24-22 30-23 19-5 38-7 55-7 26 0 49 4 69 8 80 16 154 48 210 74 3 2 7 2 10 2 67-12 134-10 200 5 129 32 228 102 294 209 51 80 70 177 53 271z m-93-247c-60-98-147-159-265-187-60-14-121-16-182-5-13 2-27 0-38-6-53-26-123-56-198-71-24-5-54-9-85-5 4 3 7 6 10 9l8 8c25 22 52 48 71 83 5 10 9 21 13 31l4 10c8 17 4 37-10 50-17 18-34 38-49 57-50 68-74 152-67 236 7 89 44 167 111 233 67 65 150 105 248 118 15 2 30 3 46 3 7 1 14 1 20 1 92 0 181-29 256-84 85-62 137-143 154-243 14-82-2-167-47-238z m-137 162c0-28-23-51-51-51-28 0-51 23-51 51 0 28 22 51 50 51h1c28 0 51-23 51-51z m-180 0c0-28-23-51-51-51-28 0-51 23-51 51 0 28 23 51 51 51 28 0 51-23 51-51z m-180 0c0-28-23-51-51-51-28 0-51 23-51 51 0 28 22 51 51 51h0c28 0 51-23 51-51z" horiz-adv-x="1000" />

<glyph glyph-name="impact-globe" unicode="&#xe843;" d="M501 835c-43 0-83-5-122-15l-3 1-1-2c-1-1-2-1-3-1l0 0-15-4c-3-1-6-3-10-4-4-1-8-2-12-4-3-1-6-2-10-4-3-1-7-2-11-4-3-1-6-3-10-4-3-2-7-4-11-5-3-2-6-3-9-5-2-1-5-2-7-4l-15-7 1 0c-4-2-8-4-11-7l0 1-6-4c-2-1-3-2-5-3-5-4-10-7-16-11-2-1-5-3-7-5-5-4-10-7-14-11-3-1-5-3-8-5-4-4-9-8-14-12-2-2-4-4-6-5-15-14-30-30-44-46-1-2-3-3-4-5 0 0 0 0-1 0-1-2-2-4-4-5-3-4-5-7-8-11-2-2-3-4-5-6 0 0 0 0 0-1l-5-6c-1-1-2-3-3-5-2-3-4-6-6-9-2-3-4-5-6-8-2-4-4-7-6-10-2-3-4-6-5-9-3-5-6-10-8-15-3-4-5-8-7-13l0 0c-1-1-1-2-1-3l0 0c-2-3-4-6-5-10-1-2-2-4-3-6-2-7-5-13-8-20-1-2-2-5-3-7l0-2c-1-4-3-8-4-12-1-2-2-5-3-8l-3-10 0 0c-12-43-19-88-19-134 0-255 198-465 448-484l24-2 0 1c4 0 9 0 14 0 267 0 485 217 485 485s-218 485-485 485z m311-197c9 12 12 29 8 48 40-39 74-84 98-134-13 3-25 3-34-9-3-3-6-4-8-4 0 0-1 2-1 4-2 23-19 42-45 50-27 9-51 2-71-6-4-1-8-3-12-5-29-14-45-17-53-1-2 5-2 7-1 8 6 13 42 19 57 22 5 1 9 2 12 3l3 0c16 5 37 11 47 24z m-530 121c3-1 6-2 9-2 2 0 4-1 5-2-1-1-4-5-12-10-3-1-6 1-14 8 4 2 8 4 12 6z m119-862c-208 45-364 231-364 453 0 44 6 87 17 127 15-6 25-13 28-22 4-11 1-25-9-42-5-8-5-17 0-25 16-23 73-36 108-30 14 2 18-4 24-17 5-10 11-24 28-25 16-1 48-28 55-39-13-17-31-69-21-106 7-27 31-39 50-49 10-5 19-10 22-14 7-10 6-25 6-40-1-8-1-16 0-23 0-7 0-14-1-21-1-12-3-26 3-44 5-13 15-23 26-35 15-15 31-31 28-48z m21-4c0 0 0 0 0 0 4 28-17 50-34 67-9 10-18 19-21 26-4 14-3 25-2 36 1 8 2 16 1 25-1 6 0 13 0 20 0 18 1 38-9 53-6 9-18 15-30 21-17 9-36 18-40 36-9 32 12 83 19 90 2 2 6 7 2 17-8 19-50 51-74 53-3 0-5 3-10 12-6 13-16 35-47 29-30-5-77 8-86 21-1 2-1 2-1 3 14 23 18 43 12 60-6 15-20 27-41 35 34 102 102 187 190 244 1-1 2-2 4-3 9-8 22-20 39-11 18 10 26 21 23 33-1 5-4 9-8 12 12 6 26 11 39 16 1-2 2-3 3-5 4-2 8-3 13 0 2 1 4 2 10 3 2 1 5 1 7 2 1-4 1-8 1-11 0-6 0-13 7-18 7-5 16-1 26 4 7 3 13 6 18 9 17 10 25 14 47 4 13-6 20-10 24-13 8-4 11-5 19-3 3 0 14-6 16-13 0-1 1-3-2-6-12-10-27-7-51-1-3 0-7 1-11 2-25 6-37-7-44-16-3-3-6-5-7-6-3-1-12 2-19 4-23 6-58 15-72-10-14-25-20-40-13-51 4-7 12-11 23-10 5 0 9 0 12 1 0-6-2-19 8-25 11-5 23 2 35 12 8 6 13 11 15 14 2-1 3-1 4-2 18-8 29 3 38 13 4 4 8 8 13 11 4 3 8 4 12 2 8-3 15-14 18-27 1-8 1-11 1-12-3-1-10-1-16-1-4 0-8 0-12-1-10 0-16 1-21 2-17 4-23 0-31-20-8-23-48-55-82-68-39-15-58-39-57-73 1-10-1-19-3-25-9 19-25 41-45 46-8 1-20 1-32-11-28-28-53-55-46-78 3-11 13-18 30-20 39-7 45 16 48 27 0 1 0 2 0 2 5-1 6-2 4-11-2-7-5-22 10-29 2-1 3-2 4-2 1-5 4-9 12-17 6-5 10-9 14-13 10-11 17-17 38-8 7 4 13 9 17 12 10 9 12 11 26-2 26-24 33-30 52-20 1 1 2 2 4 2 4 2 10-8 15-17 1-2 2-4 3-5 5-8 13-10 21-11 10-2 21-5 32-21 20-32 34-46 65-30 8 4 14 5 17 4 3-2 5-5 8-12 4-11 11-14 17-15 1 0 1 0 1 0 1 0 1-2 2-5 3-9 4-11 4-12-1-1-2-2-3-4-2-2-4-4-6-7-1-2-3-4-5-6-11-15-31-38-9-75 7-12 6-16 6-16-1-1-8-2-19 1-14 3-40-1-52-14-6-7-8-16-4-25 1-4 3-8 5-11-16-8-26-25-39-47-2-4-5-9-8-14-6-10-14-14-22-17-11-4-29-12-18-38 5-13 10-20 14-25 4-7 6-8 5-16 0-2 0-3 0-4-7 1-14 2-21 3z m460 194c-84-122-223-201-381-201-12 0-23 1-34 1-3 4-3 6-3 6 1 15-4 21-9 29-3 5-7 10-12 22-2 4-2 6-2 6 1 1 6 3 9 4 9 4 23 10 32 25 3 5 6 10 8 15 12 20 20 34 31 39l1 1c8 3 12 6 14 12 1 6-2 10-4 12-2 2-4 5-7 12 0 2 0 2 1 3 5 6 23 9 31 7 11-2 31-5 41 8 10 14-1 32-5 38-14 25-4 38 8 51 2 3 4 6 5 8l0 0c2 3 4 5 5 6 9 11 10 17 3 35-5 16-12 19-20 20 0 0 0 0 0 0 0 1 0 1-1 2-3 8-8 19-19 23-10 4-21 2-34-4-15-8-18-9-39 22-15 24-34 28-45 30-3 1-6 2-7 2-1 1-1 3-2 4-7 12-21 37-44 26-1-1-3-1-4-2-2-1-4-2-4-2-4 0-16 11-24 18-26 24-40 15-54 3-4-3-7-6-12-8-6-3-8-3-8-3-1 0-4 3-6 6-4 3-8 9-15 14-5 5-6 7-6 7-1 8-7 11-15 15 0 1 0 4 1 5 2 9 6 28-17 36-7 3-12 3-17 0-8-4-9-11-11-17-2-10-4-15-24-12-7 2-13 4-13 7-4 12 30 45 41 56 6 6 10 6 13 5 11-2 24-21 31-38 6-15 16-15 20-14 16 3 23 33 22 53 0 16 4 37 43 52 36 14 82 48 94 80 2 5 3 7 4 9 1-1 2-1 3-1 5-1 14-3 26-3 5 1 9 1 12 1 15 0 26 0 32 9 6 8 5 19 3 29-5 21-16 37-31 43-11 4-22 2-31-5-7-4-12-9-16-14-9-9-10-9-14-8-13 6-19 8-28-3-3-3-6-6-13-12-4-3-7-5-9-6 0 0 0 0 0 1 1 9 2 15-3 20-5 4-11 4-17 3-3-1-8-1-13-1-3 0-4 0-5 0 0 3 2 10 13 29 6 11 25 7 48 1 14-4 24-7 32-4 7 3 11 8 15 13 7 7 11 12 24 9 4-1 7-2 11-3 25-6 49-12 70 7 9 9 12 21 6 32-7 13-25 25-38 22 0 0-1 0-1 0-1 1-2 1-4 2-4 2-12 6-26 13-31 14-46 6-65-4-5-3-10-6-17-9-1-1-2-1-3-2 0 6-1 14-6 22 33 8 68 12 104 12 108 0 207-37 286-100 18-26 17-52 8-64-5-7-24-12-36-15l-3-1c-2-1-6-1-10-2-31-6-62-13-72-33-3-5-5-15 1-26 18-39 60-20 81-10 4 1 7 3 10 4 18 7 37 13 58 6 18-5 29-17 30-32 1-11 7-19 16-22 2-1 5-1 7-1 8 0 17 4 23 12 4 5 12 3 29-3 5-11 9-22 12-33-14-16-55-19-66-12-3 2-7 10-9 17-6 15-16 39-43 32-10-3-20-8-30-12-13-5-29-12-35-9-14 6-34 5-44-6-5-5-10-18 3-38 4-5 7-12 5-17-4-6-16-10-30-11-17 0-34-18-41-42-11-37 4-72 39-95 47-31 78-17 96-8 6 3 11 5 12 3 19-17 30-17 48-17l3 0c0 0 2 0 3 0 0-1-1-3-2-4-10-20 2-48 35-88 5-5 6-8 6-8-1-1-4-4-6-5-6-4-14-9-17-19-4-15 3-49 14-68z m7 63c0 2 4 5 7 7 6 4 14 9 16 19 1 11-5 20-11 25-30 36-36 57-32 65 5 9 9 18 5 26-5 8-16 8-26 8l-2 0c-15 0-20 0-34 12-12 11-25 5-35 0-17-8-38-18-76 7-39 25-34 58-30 71 5 18 16 28 21 28 18 0 40 6 48 22 4 7 6 20-6 38-5 8-5 12-4 13 2 2 12 3 19 0 14-7 32 1 52 9 9 4 18 8 28 11 6 2 9-1 17-20 4-11 8-22 18-27 19-11 62-6 84 9 10-39 16-81 16-123 0-89-25-172-69-243-5 14-9 35-6 43z" horiz-adv-x="1000" />

<glyph glyph-name="impact-bloom" unicode="&#xe844;" d="M680 423c-6 6-15 17-30 20a43 43 0 0 1-9 1 51 51 0 0 1-20-4c6 27 2 56-3 84-2 9-6 33-30 40a40 40 0 0 1-12 2 43 43 0 0 1-35-18c-12-18-12-36-11-50 0-4 0-8 0-11a52 52 0 0 0-7-23 61 61 0 0 1-20 10 44 44 0 0 1-10 1c-17 0-32-9-38-24-5-11-2-22-1-28 3-16 10-26 16-34 7-10 12-17 10-38a154 154 0 0 0-28 26 34 34 0 0 1-25 12q3 7 6 14c17 38 38 85 52 148 12 54 20 154-24 187a58 58 0 0 1-36 12c-28 0-57-18-72-46-11-17-12-33-14-52-2-16-4-36-13-65-1-3-1-5-2-8-1 3-1 7-1 11-5 46 2 79 7 108 6 29 12 57 2 86-13 40-47 66-85 66a82 82 0 0 1-29-5c-38-14-71-58-81-107-6-34 9-66 29-106 12-24 25-51 38-86 12-32 8-58 2-90-7 40-17 86-49 105a63 63 0 0 1-32 8c-30 0-59-18-77-48-29-46-26-115-7-155 13-28 20-38 30-50a83 83 0 0 1-11 1c-23 0-41-10-51-27-12-20-12-52 1-95 12-41 30-77 35-87 44-85 115-143 208-169l1-1c6-5 11-11 15-16 3-4 5-10 7-15 1-4 2-7 4-10 16-39 79-47 91-47a30 30 0 0 1 12 2c25 6 54 8 81 10 14 1 28 2 41 3 15 1 32 3 48 11 20 9 34 24 46 37 3 3 6 6 8 8 11 12 18 27 18 42 0 26-17 44-44 49 11 7 21 15 29 21 13 11 32 26 38 51a52 52 0 0 1-3 32 50 50 0 0 1-30 29c12 7 21 19 24 32 3 17-2 32-15 44 2 0 3 0 5 0a63 63 0 0 1 11 1c19 3 34 17 37 34 3 14-3 25-6 33-1 1-2 3-2 4a96 96 0 0 1-18 30c2 0 4 0 6 1 13 1 24 6 32 13 9 8 34 38-9 86z m-615-304c-20 39-56 127-36 159 6 11 17 15 31 15 16 0 35-7 50-21 37-33 36-89 61-97a37 37 0 0 1 11-2c16 0 30 10 18 29-12 20-54 58-73 83-42 54-44 46-65 90-16 35-18 95 5 134 15 23 37 37 58 37a39 39 0 0 0 20-5c46-27 36-151 57-151l1 0c10 1 19 27 23 47 8 40 16 73 0 117-35 93-75 137-66 179 8 42 37 79 66 90a59 59 0 0 0 21 4c28 0 53-19 63-50 16-49-20-92-10-190 1-12 7-65 20-65h0c11 0 23 39 28 58 19 63 9 86 25 113 12 21 33 33 52 33a35 35 0 0 0 22-6c31-24 28-109 15-164-26-121-83-185-76-232a83 83 0 0 1-8 6 33 33 0 0 1-19 7 34 34 0 0 1-34-33q-1-30 5-53a34 34 0 0 1-51-4c-23-28-25-66-15-99a51 51 0 0 1-28 9 46 46 0 0 1-14-3l-4-1-3-2c-19-14-28-38-27-70a202 202 0 0 1 35-107c-93 37-138 106-158 145z m608 235c-5-4-11-7-18-7a76 76 0 0 0-8-1c-16 0-34 4-48 4-15 0-27-4-28-23 0-7 2-9 7-9 8 0 20 6 31 6a20 20 0 0 0 13-4 75 75 0 0 0 25-35c3-7 9-16 7-25-1-8-10-14-18-15a40 40 0 0 0-7-1c-6 0-12 1-18 2-14 2-27 3-40 3a126 126 0 0 1-24-2c-11-2-12-18 0-20s24-5 35-9c18-5 38-18 34-36-2-8-7-14-14-17-15-8-31-6-47-9-19-3-36-15-47-31-6-9 0-21 11-21l1 0c14 1 28 8 42 14 9 4 21 7 32 7 13 0 25-4 30-17a29 29 0 0 0 1-19c-4-17-17-28-30-38-12-10-25-20-40-25a80 80 0 0 0-22-3c-14 0-27 2-40 3-1 0-2 0-3 0-20 0-43-6-52-24 12-16 32-21 51-21a108 108 0 0 1 11 0c21 2 43 9 64 9 1 0 2 0 3 0 16 0 34-6 34-27 0-9-4-19-10-25-15-15-28-33-47-41-13-6-28-8-42-9-41-4-88-4-128-14 0-1-1-1-3-1-12 0-60 9-70 33-4 9-7 20-13 28-6 11-16 19-25 27a179 179 0 0 0-52 121c-1 18 3 39 18 50a23 23 0 0 0 7 1c14 0 28-13 33-27 7-16 7-35 15-50 6-13 19-23 32-23a22 22 0 0 1 16 7c7 7 8 21 5 30-9 24-17 30-32 49-26 31-33 82-8 114a11 11 0 0 0 18-2c6-11 8-23 11-35 4-17 7-35 16-50 8-15 24-27 41-27a37 37 0 0 1 13 2c12 5 20 17 18 30-3 16-13 33-25 42-33 27-42 68-41 110a11 11 0 0 0 11 11 10 10 0 0 0 6-2c12-10 21-25 28-40 7-15 12-32 21-46 3-3 12-9 20-9 10 0 18 10 3 50-7 18-15 37-21 55-5 14-6 27 1 39a11 11 0 0 0 9 5 11 11 0 0 0 9-4c11-13 37-39 53-39a12 12 0 0 1 3 0c5 1 10 16 11 21 8 53-19 54-25 84-1 4-2 10-1 14 3 7 10 10 17 10a22 22 0 0 0 5-1c8-2 14-7 21-12 2-2 4-4 7-4h0c4 0 6 3 8 5a75 75 0 0 1 19 45c1 17-4 34 7 49a20 20 0 0 0 16 9 17 17 0 0 0 5-1c10-3 12-13 14-22 6-36 12-76-9-105-6-9-3-12 2-12 8 0 21 6 27 8 8 5 17 10 26 10a20 20 0 0 0 4 0c7-2 13-8 18-13 13-15 28-38 10-54z m-376-262c8-10 13-16 18-30a12 12 0 0 0 0-6c-3 1-8 4-10 10-3 6-5 14-7 22 0 1 0 3-1 4z m50 114a124 124 0 0 1 28-31c8-6 14-18 16-28 0-3-2-4-3-4a14 14 0 0 0-5-1c-7 0-16 6-21 16-7 10-10 24-13 39l0 4q-1 2-2 5z" horiz-adv-x="704" />

<glyph glyph-name="tech-seamless" unicode="&#xe845;" d="M853 575a309 309 0 0 1-114-21c-59-23-128-65-202-121l-37-29h0c-32 25-87 59-94 64-76 50-170 96-259 96-79-216 0-454 0-454a309 309 0 0 1 114 21c59 24 128 65 202 122l37 29h0c32-25 87-60 94-65 76-50 170-95 259-95 79 215 0 453 0 453z m-660-341a506 506 0 0 0-18 57c-4 13-32 109 1 196 54 0 230-71 308-98a1014 1014 0 0 0-291-155z m631-35c-54 0-230 71-308 97a1014 1014 0 0 0 291 156 506 506 0 0 0 18-57c4-14 31-109-1-196z" horiz-adv-x="1000" />

<glyph glyph-name="tech-compositetoe" unicode="&#xe846;" d="M900 113c0 2-1 3-1 4 0 3-6 23-16 61-2 25-11 43-27 53a62 62 0 0 1-35 9h0l-5 0c-101-4-175 14-208 49-53 57-54 105-55 126 0 1 0 3 0 4 0 8 2 50 4 92 2 43 4 93 5 122 0 15-12 30-36 43-40 22-113 43-188 54-50 7-139 15-180-11a46 46 0 0 1-23-45c8-94 39-283 41-292l0-1c9-39-2-65-12-91-1-3-2-6-3-9-8-22-11-68-10-138v-2c1-13 0-99 0-100v-7l4-5c4-4 7-7 44-15 20-4 41-7 56-9 7 0 15 0 24 0 29 0 61 3 65 3l45 3v28c54-3 89-8 106-11l2-10 10-3c29-7 180-1 250 10 23 3 64 16 81 22 58 18 60 21 63 26 6 9 4 19-1 40z m-245-64a1238 1238 0 0 0-129-1l-2 10-11 2c-2 1-49 10-140 15l-18 0v-32l-13 0h-1c0 0-54-5-83-3a584 584 0 0 0-72 13c0 25 0 78 0 88v3c-2 89 5 117 8 125 1 3 2 5 3 8 10 28 24 63 13 112-2 11-33 198-41 288-1 9 8 15 27 20 41 10 118 5 197-12 91-21 130-45 134-53 0-28-3-77-5-120-2-53-4-86-3-95 0-1 0-3 0-4 0-22 3-81 64-147 21-22 60-47 135-57-19-29-80-123-63-160z" horiz-adv-x="1000" />

<glyph glyph-name="impact-durafresh" unicode="&#xe847;" d="M666 564c-35 3-66-6-93-15-20-6-39-11-57-11-18 1-50 9-84 17-43 10-87 21-113 20-26-1-45-26-45-47v-485c0-70 53-127 119-127h215c66 0 119 57 119 127l0 482c1 12-7 34-61 39z m39-521c0-58-43-105-97-105h-215c-54 0-97 47-97 105v485c0 9 9 24 24 25 1 0 2 0 3 0 24 0 66-10 104-20 35-8 68-16 89-17 21-1 41 6 63 12 27 8 54 16 86 14 30-3 40-11 40-17l0-482z m42 652l-23 23c-5 5-8 12-8 19v1h2c23 0 42 19 42 42v13c0 23-19 42-42 42h-431c-24 0-43-19-43-42v-13c0-22 18-41 41-42v-1c0-7-3-14-8-19l-23-23c-25-25-39-58-39-93v-585c0-84 69-153 153-153h265c84 0 152 69 152 153v585c1 35-13 68-38 93z m-481 85v13c0 11 10 20 21 20h431c11 0 20-9 20-20v-13c0-11-9-20-20-20h-2-429c-12 0-21 9-21 20z m497-763c0-72-58-131-130-131h-265c-72 0-130 59-130 131v585c0 29 11 57 32 78l23 22c9 10 14 22 14 35v1h387v-1c0-13 5-25 14-35l23-22c21-21 32-49 32-78v-585z m-150 43c-22 0-40-18-40-40s18-41 40-41 39 18 39 41-18 40-39 40z m0-59c-10 0-18 8-18 18s8 19 18 19 17-8 17-19-8-18-17-18z m-262 119c-22 0-39-18-39-41 0-22 17-41 39-41 22 0 39 19 39 41 0 23-17 41-39 41z m0-60c-10 0-17 9-17 19 0 10 7 19 17 19 9 0 17-9 17-19 0-10-8-19-17-19z m123 223c0 18-14 32-31 32-17 0-31-14-31-32 0-18 14-32 31-32 17 0 31 14 31 32z m-31-10c-5 0-9 5-9 10 0 6 4 10 9 10s9-5 9-10c0-5-4-10-9-10z m156-165c0 15-12 27-26 27-14 0-26-12-26-27 0-15 12-27 26-27 14 0 26 12 26 27z m-26-5c-2 0-4 2-4 5 0 2 2 4 4 4 2 0 4-2 4-4 0-3-2-5-4-5z m-100-66c-14 0-26-11-26-26s12-27 26-27c14 0 26 12 26 27s-12 26-26 26z m0-31c-2 0-4 2-4 5s2 4 4 4c2 0 4-2 4-4s-2-5-4-5z m9 224c-11 0-20-9-20-21s9-20 20-20 20 9 20 20-9 21-20 21z m-2-21c0 1 1 2 2 2 1 0 2-1 2-2 0-2-4-2-4 0z m130-11c11 0 20 9 20 21 0 11-9 20-20 20s-20-9-20-20c0-12 9-21 20-21z m0 22c1 0 2 0 2-1 0-2-4-2-4 0 0 1 1 1 2 1z m-3-41c0-12 9-21 21-21s20 9 20 21c0 11-9 21-20 21s-21-10-21-21z m22 0c0-1-3-1-3 0 0 0 1 1 2 1 1 0 1-1 1-1z m-230-26c-13 0-23-10-23-24 0-13 10-24 23-24s23 11 23 24c0 14-10 24-23 24z m-1-24c0 1 0 2 1 2 1 0 1-1 1-2 0-2-2-2-2 0z" horiz-adv-x="1000" />

<glyph glyph-name="impact-recycle" unicode="&#xe848;" d="M1024 398l-83 159a30 30 0 0 1-54 0l-54-110-113 1h0a38 38 0 0 1-34-56l91-168-150 2 0 45a19 19 0 0 1-35 10l-120-210 118-211a19 19 0 0 1 16-10 19 19 0 0 1 5 0 19 19 0 0 1 14 18l3 57 106-1h1a138 138 0 0 1 121 72l140 257 27 48a102 102 0 0 1 1 97z m-188-391a115 115 0 0 0-101-60h-1l-128 1-4-63-103 185 105 184-1-52 263-2h2c1 0 3 0 4 0l1 0c3 0 7 1 10 1h1c1 0 3 0 5 0l0 0c2 1 4 1 6 1l0 0q5 1 11 2l0 0c1 1 3 1 5 2l0 0q3 0 5 1l1 0c2 1 3 1 5 2l0 0c2 0 3 1 5 2l0 0q3 1 5 2l1 0c1 0 3 1 4 2l1 0c2 1 3 1 5 2l0 0c2 1 3 2 4 3l1 0q2 1 4 2l1 1z m166 305l-25-45-26-17a147 147 0 0 0-83-26h-1l-63 0-97 179a14 14 0 0 0 13 22h0l127-1 61 122a7 7 0 0 0 12 0l83-159a79 79 0 0 0-1-75z m-579-245l57 98a38 38 0 0 1-32 57l-190 5 76 129 39-23a19 19 0 0 1 26 26l-122 209-241 4a19 19 0 0 1-11-35l48-31-54-91a138 138 0 0 1 1-143l153-249 28-47a102 102 0 0 1 84-50l179-7c0 0 1 0 1 0a30 30 0 0 1 25 46z m-234 90q-1-3-2-5c0 0 0 0-1-1 0-1-1-3-2-4l0-1c-1-1-1-3-2-4 0 0 0 0 0-1q-1-2-2-4c0-1 0-1 0-1-1-2-1-3-2-5l0 0q-1-3-2-5c0 0 0 0 0-1 0-1-1-3-1-4l-1-1c0-1 0-3-1-5 0 0 0 0 0-1 0-1-1-3-1-4l0-1c-1-2-1-3-1-5a1 1 0 0 1 0 0c0-2-1-4-1-5 0 0 0-1 0-1 0-2 0-3-1-5l0-1c0-1 0-3 0-5 0 0 0 0 0 0 0-2 0-4 0-5a0 0 0 0 0 0-1c0-1 0-3 0-5 0 0 0 0 0 0l-128 209a115 115 0 0 0-2 118l66 110-53 35 211-3 107-182-44 26-134-227q-1-2-2-5c-1 0-1 0-1 0z m282-211a6 6 0 0 0-6-4l-179 8a79 79 0 0 0-65 38l-26 45-1 10-2 20a150 150 0 0 0 0 22 147 147 0 0 0 20 65l32 54 204-6a14 14 0 0 0 12-21l-65-110 76-115a6 6 0 0 0 0-6z m-296 651l122 7 56-98a38 38 0 0 1 32-19h1a38 38 0 0 1 32 18l100 162 74-131-40-22a19 19 0 0 1 9-35h0l243 1 123 207a19 19 0 0 1-24 27l-51-26-52 92a138 138 0 0 1-124 70l-293-8-54 0a102 102 0 0 1-85-48l-96-151a30 30 0 0 1 27-46z m501 229a115 115 0 0 0 103-58l64-111 56 28-109-182-211-1 45 26-92 162h0l-38 67c-1 1-2 3-3 5 0 1-1 1-1 2-1 1-2 2-2 3l-2 2c0 1-1 2-2 3 0 1-1 2-1 2-1 1-2 2-3 3 0 1 0 2-1 2-1 1-2 2-2 3-1 1-1 1-2 2-1 1-2 2-3 3 0 1-1 1-1 1-1 2-3 3-4 5-1 0-1 1-1 1-1 1-2 2-3 3-1 1-2 1-2 2-1 1-2 1-3 2-1 1-1 1-2 2-1 1-2 1-3 2 0 1-1 1-2 2-1 0-2 1-3 2 0 0-1 1-1 1-2 1-3 2-4 3 0 0-1 1-1 1-2 1-4 2-6 3l0 1c-1 0-3 1-4 2z m-508-196l96 152a79 79 0 0 0 65 36l52 1 28-13c3-2 5-3 8-4a147 147 0 0 0 57-57l30-54-106-174a14 14 0 0 0-25 0l-63 112-136-9a7 7 0 0 0-6 10z" horiz-adv-x="1036" />

<glyph glyph-name="phone" unicode="&#xe849;" d="M33 435v-163a16 16 0 0 0-33 0v163a16 16 0 0 0 15 17h1a16 16 0 0 0 17-17z m442-531h51a16 16 0 0 1 16 16 16 16 0 0 1-16 17h-51a19 19 0 0 1-4 0 16 16 0 1 1 4-33z m-393 598h-2a16 16 0 0 1-15-16v-264a16 16 0 0 1 33 0v264a16 16 0 0 1-16 16z m65 65h-2a16 16 0 0 1-15-17v-393a16 16 0 0 1 33 0v393a16 16 0 0 1-16 17z m696 0h-2a16 16 0 0 1-15-17v-393a16 16 0 0 1 33 0v393a16 16 0 0 1-16 17z m130-115h-2a16 16 0 0 1-14-17v-163a16 16 0 0 1 32 0v163a16 16 0 0 1-16 17z m-65 51h-2a16 16 0 0 1-15-17v-264a16 16 0 0 1 33 0v264a16 16 0 0 1-16 16z m-124 272v-850a75 75 0 0 0-74-75h-420a75 75 0 0 0-74 75v850a75 75 0 0 0 74 75h420a75 75 0 0 0 74-75z m-32-818h-504v-32a42 42 0 0 1 42-42h420a42 42 0 0 1 42 42z m0 777h-504v-744h504z m0 41a42 42 0 0 1-42 42h-420a42 42 0 0 1-42-42v-9h504z" horiz-adv-x="989" />
</font>
</defs>
</svg>
